<?xml version="1.0" encoding="UTF-8" standalone="no"?>
<!-- Creator: CorelDRAW X6 -->

<svg
   xml:space="preserve"
   width="297mm"
   height="148.5mm"
   version="1.1"
   style="shape-rendering:geometricPrecision; text-rendering:geometricPrecision; image-rendering:optimizeQuality; fill-rule:evenodd; clip-rule:evenodd"
   viewBox="0 0 29700 14850"
   id="svg909"
   sodipodi:docname="Flag_of_the_Tajik_Soviet_Socialist_Republic_(1935–1936).svg"
   inkscape:version="1.1.1 (3bf5ae0d25, 2021-09-20)"
   xmlns:inkscape="http://www.inkscape.org/namespaces/inkscape"
   xmlns:sodipodi="http://sodipodi.sourceforge.net/DTD/sodipodi-0.dtd"
   xmlns="http://www.w3.org/2000/svg"
   xmlns:svg="http://www.w3.org/2000/svg"
   xmlns:rdf="http://www.w3.org/1999/02/22-rdf-syntax-ns#"
   xmlns:cc="http://creativecommons.org/ns#"
   xmlns:dc="http://purl.org/dc/elements/1.1/"><metadata
   id="metadata913"><rdf:RDF><cc:Work
       rdf:about=""><dc:format>image/svg+xml</dc:format><dc:type
         rdf:resource="http://purl.org/dc/dcmitype/StillImage" /></cc:Work></rdf:RDF></metadata><sodipodi:namedview
   pagecolor="#ffffff"
   bordercolor="#666666"
   borderopacity="1"
   objecttolerance="10"
   gridtolerance="10"
   guidetolerance="10"
   inkscape:pageopacity="0"
   inkscape:pageshadow="2"
   inkscape:window-width="1920"
   inkscape:window-height="1007"
   id="namedview911"
   showgrid="false"
   inkscape:zoom="1.0503157"
   inkscape:cx="561.25984"
   inkscape:cy="280.86794"
   inkscape:window-x="-9"
   inkscape:window-y="-9"
   inkscape:window-maximized="1"
   inkscape:current-layer="svg909"
   inkscape:pagecheckerboard="0"
   inkscape:document-units="mm" />
 <defs
   id="defs901">
  <font
   id="FontID0"
   horiz-adv-x="388"
   font-variant="normal"
   style="fill-rule:nonzero"
   font-weight="700">
	<font-face
   font-family="Marquisette BTN"
   id="font-face2">
	</font-face>
   <missing-glyph
   id="missing-glyph6"><path
     d="M0 0z"
     id="path4" /></missing-glyph>
   <glyph
   unicode="ÿ"
   horiz-adv-x="297"
   id="glyph10"><path
     d="M306.833 567.001l-118.834 -318.835 0 -248.166 -77.998 0 0 248.166 -119.001 318.835 77.6668 0 80.0005 -212.001 79.1648 212.001 79.0008 0zm-44.8316 79.9974c0,-11.8323 -4.50019,-22.4978 -13.6677,-32.3307 -9.16751,-9.83608 -20.6655,-14.6674 -34.3332,-14.6674 -13.6677,0 -25.1657,4.83131 -34.3332,14.6674 -9.16751,9.83292 -13.6677,20.4984 -13.6677,32.3307 0,11.6683 4.50019,22.3338 13.6677,31.8356 9.16751,9.49864 20.6655,14.166 34.3332,14.166 13.6677,0 25.1657,-4.66733 34.3332,-14.166 9.16751,-9.50179 13.6677,-20.1673 13.6677,-31.8356zm-128.001 0c0,-11.8323 -4.50019,-22.4978 -13.6677,-32.3307 -9.16436,-9.83608 -20.6655,-14.6674 -34.3332,-14.6674 -13.6645,0 -25.1657,4.83131 -34.3332,14.6674 -9.16436,9.83292 -13.6645,20.4984 -13.6645,32.3307 0,11.6683 4.50019,22.3338 13.6645,31.8356 9.16751,9.49864 20.6687,14.166 34.3332,14.166 13.6677,0 25.1689,-4.66733 34.3332,-14.166 9.16751,-9.50179 13.6677,-20.1673 13.6677,-31.8356z"
     id="path8" /></glyph>
   <glyph
   unicode="î"
   horiz-adv-x="148"
   id="glyph14"><path
     d="M113 0l-78.0011 0 0 567.001 78.0011 0 0 -567.001zm61.9998 601l-72.167 0 -26.834 33.8318 -26.8308 -33.8318 -74.1663 0 65.8314 90.0006 68.3353 0 65.8314 -90.0006z"
     id="path12" /></glyph>
   <glyph
   unicode="Ý"
   horiz-adv-x="356"
   id="glyph18"><path
     d="M365.001 700.001l-146.002 -394.001 0 -306 -81.9999 0 0 306 -145.999 394.001 81.9999 0 103.501 -281.001 105.501 281.001 82.9996 0zm-68.0011 140.997l-69.3319 -89.9974 -74.6678 0 65.8345 89.9974 78.1651 0z"
     id="path16" /></glyph>
   <glyph
   unicode="Ì"
   horiz-adv-x="162"
   id="glyph22"><path
     d="M122 0l-81.9999 0 0 700.001 81.9999 0 0 -700.001zm-9.00037 751.001l-71.8327 0 -73.1667 89.9974 79.1648 0 65.8345 -89.9974z"
     id="path20" /></glyph>
   <glyph
   unicode="»"
   horiz-adv-x="369"
   id="glyph26"><path
     d="M223 278.832l-198.002 -180.831 0 91.8328 100.168 88.9977 -100.168 90.3348 0 92.8325 198.002 -183.167zm150.001 0l-198.002 -180.831 0 91.8328 100.168 88.9977 -100.168 90.3348 0 92.8325 198.002 -183.167z"
     id="path24" /></glyph>
   <glyph
   unicode="ª"
   horiz-adv-x="207"
   id="glyph30"><path
     d="M221.332 351.998l-67.3325 0 -24.8346 88.0012 -49.8332 0 -24.9986 -88.0012 -67.3325 0 117.166 389.003 117.166 -389.003zm-3.33335 -74.9989l-227.497 0 0 60.0004 227.497 0 0 -60.0004zm-100.666 223l-13.1663 49.8332 -14.166 -49.8332 27.3322 0z"
     id="path28" /></glyph>
   <glyph
   unicode=""
   horiz-adv-x="500"
   id="glyph34"><path
     d="M61.9998 0l0 840.999 375.001 0 0 -840.999 -375.001 0zm62.9995 62.9995l249.002 0 0 715 -249.002 0 0 -715z"
     id="path32" /></glyph>
   <glyph
   unicode=""
   horiz-adv-x="500"
   id="glyph38"><path
     d="M61.9998 0l0 840.999 375.001 0 0 -840.999 -375.001 0zm62.9995 62.9995l249.002 0 0 715 -249.002 0 0 -715z"
     id="path36" /></glyph>
   <glyph
   unicode="w"
   horiz-adv-x="576"
   id="glyph42"><path
     d="M583.832 567.001l-167.999 -581 -128.001 393.831 -127.831 -393.831 -168.002 581 78.6665 0 91.3345 -380.002 125.832 399 126.002 -399 91.8328 380.002 78.1651 0z"
     id="path40" /></glyph>
   <glyph
   unicode="f"
   horiz-adv-x="261"
   id="glyph46"><path
     d="M266 495.002l-153 0 0 -125.002 100.666 0 0 -71.9998 -100.666 0 0 -297.999 -78.0011 0 0 567.001 231.001 0 0 -71.9998z"
     id="path44" /></glyph>
   <glyph
   unicode="U"
   horiz-adv-x="469"
   id="glyph50"><path
     d="M434.001 184.832c0,-52.334 -19.5019,-97.4998 -58.3353,-135.166 -39.0006,-37.8337 -85.8315,-56.667 -140.833,-56.667 -54.8316,0 -101.666,18.8333 -141.001,56.667 -39.1645,37.6666 -58.8335,82.8324 -58.8335,135.166l0 515.169 81.9999 0 0 -514.835c0,-32.1667 11.6683,-59.499 35.0018,-81.6656 23.1663,-22.3338 50.8329,-33.5007 82.8324,-33.5007 32.1667,0 59.8332,11.1669 82.6684,33.5007 22.9992,22.1666 34.4972,49.4989 34.4972,81.6656l0 514.835 82.003 0 0 -515.169z"
     id="path48" /></glyph>
   <glyph
   unicode="D"
   horiz-adv-x="490"
   id="glyph54"><path
     d="M465.001 351.998c0,-94.999 -35.5001,-177.497 -106.667,-247.33 -71.1673,-69.8333 -156.333,-104.668 -255.334,-104.668l-62.9995 0 0 700.001 62.9995 0c99.0009,0 184.167,-34.3332 255.334,-103.167 71.1673,-68.8336 106.667,-150.502 106.667,-244.836zm-81.9999 0c0,73.0027 -25.336,135.334 -75.8346,187.002 -50.5017,51.8326 -112.167,79.8334 -185.167,83.9993l0 -545.834c72.9995,4.16906 134.665,32.8353 185.167,86.0018 50.4986,52.9994 75.8346,115.999 75.8346,188.831z"
     id="path52" /></glyph>
   <glyph
   unicode="3"
   horiz-adv-x="504"
   id="glyph58"><path
     d="M471 223c0,-62.8323 -23.1663,-116.835 -69.499,-162.168 -46.4998,-45.1658 -102.334,-67.8339 -167.835,-67.8339 -46.1655,0 -88.6666,12.668 -127.333,38.168 -39.8331,25.9983 -70.833,62.334 -93.3339,109.001l92.8357 0c32.4978,-46.8341 75.166,-70.1676 127.831,-70.1676 41.9996,0 78.0011,14.8314 108.168,44.5004 30.1642,29.6659 45.1658,65.8314 45.1658,108.165 0,43.6679 -16.0014,79.8334 -47.8338,108.332 -31.8324,28.6694 -71.6655,42.1668 -119.165,40.836l0 80.3316 26.998 0c19.6658,0 37.0012,9.00037 52.1668,27.1683 15.1657,17.9976 22.8352,38.6663 22.8352,61.6655 0,24.8346 -8.66924,45.5001 -26.0014,62.1669 -17.1682,16.4996 -37.8337,24.8346 -61.9998,24.8346 -42.9993,0 -71.8327,-21.3341 -86.1658,-64.0023l-84.0024 0c9.33465,43.3336 30.1673,77.834 61.9998,103.999 31.003,25.336 67.0014,38.0009 108.001,38.0009 47.6667,0 88.1683,-16.3325 121.833,-48.8335 33.5007,-32.4978 50.3346,-71.3313 50.3346,-116.166 0,-45.9984 -17.6665,-85.9987 -53.1665,-120.168 36.834,-21.4981 65.6674,-49.9972 86.6672,-85.4972 20.9998,-35.5001 31.4981,-73.0027 31.4981,-112.334z"
     id="path56" /></glyph>
   <glyph
   unicode="&quot;"
   horiz-adv-x="319"
   id="glyph62"><path
     d="M259.667 700.001l-5.66702 -133 -62.9995 0 -6.0013 133 74.6678 0zm-124.999 0l-5.66702 -133 -63.0026 0 -5.99815 133 74.6678 0z"
     id="path60" /></glyph>
   <glyph
   unicode="ü"
   horiz-adv-x="396"
   id="glyph66"><path
     d="M364.001 150.833c0,-42.6682 -16.4996,-79.4991 -49.3349,-110.499 -32.9993,-30.8359 -71.8327,-46.3358 -116.333,-46.3358 -44.9987,0 -83.9993,15.4999 -116.999,46.3358 -32.8353,30.9999 -49.3349,67.8308 -49.3349,110.499l0 416.168 78.0011 0 0 -408.669c0,-26.3326 8.33181,-48.3321 25.1657,-65.9985 16.6668,-17.4993 37.6666,-26.3357 63.1666,-26.3357 25.0017,0 45.8344,8.83638 62.5012,26.3357 16.8339,17.6665 25.1657,39.666 25.1657,65.9985l0 408.669 78.0011 0 0 -416.168zm-51.9997 496.165c0,-11.8323 -4.50019,-22.4978 -13.6677,-32.3307 -9.16751,-9.83608 -20.6655,-14.6674 -34.3332,-14.6674 -13.6677,0 -25.1657,4.83131 -34.3332,14.6674 -9.16751,9.83292 -13.6677,20.4984 -13.6677,32.3307 0,11.6683 4.50019,22.3338 13.6677,31.8356 9.16751,9.49864 20.6655,14.166 34.3332,14.166 13.6677,0 25.1657,-4.66733 34.3332,-14.166 9.16751,-9.50179 13.6677,-20.1673 13.6677,-31.8356zm-128.001 0c0,-11.8323 -4.50019,-22.4978 -13.6677,-32.3307 -9.16436,-9.83608 -20.6655,-14.6674 -34.3332,-14.6674 -13.6645,0 -25.1657,4.83131 -34.3332,14.6674 -9.16436,9.83292 -13.6645,20.4984 -13.6645,32.3307 0,11.6683 4.50019,22.3338 13.6645,31.8356 9.16751,9.49864 20.6687,14.166 34.3332,14.166 13.6677,0 25.1689,-4.66733 34.3332,-14.166 9.16751,-9.50179 13.6677,-20.1673 13.6677,-31.8356z"
     id="path64" /></glyph>
   <glyph
   unicode="ë"
   horiz-adv-x="291"
   id="glyph70"><path
     d="M280.667 0l-48.8335 0c-62.8323,0 -114.501,16.8339 -154.832,50.3346 -41.3342,34.1661 -62.0029,78.8305 -62.0029,133.832 0,70.0004 36.0015,122.498 107.834,157.667 -33.1664,23.4975 -49.8332,53.4977 -49.8332,90.3317 0,39.1677 16.6668,71.8327 49.8332,98.1684 31.6684,24.5003 67.8339,36.6669 109.001,36.6669l48.8335 0 0 -71.9998 -48.6663 0c-19.5019,0 -37.1683,-5.66702 -52.6683,-17.1682 -16.8339,-12.3337 -25.3329,-27.6665 -25.3329,-45.8344 0,-18.1647 8.49895,-33.3335 25.3329,-45.333 15.1688,-11.1669 32.8353,-16.6668 52.5011,-16.6668l29.3316 0 0 -71.9998 -29.3316 0c-38.6663,0 -71.1673,-10.1672 -97.3327,-30.6656 -27.6665,-21.5012 -41.5014,-49.1678 -41.5014,-82.9996 0,-33.835 13.1663,-61.0001 39.4988,-81.5016 26.3357,-20.4984 59.5021,-30.8327 99.3352,-30.8327l48.8335 0 0 -71.9998zm1.33397 646.999c0,-11.8323 -4.50019,-22.4978 -13.6677,-32.3307 -9.16751,-9.83608 -20.6655,-14.6674 -34.3332,-14.6674 -13.6677,0 -25.1657,4.83131 -34.3332,14.6674 -9.16751,9.83292 -13.6677,20.4984 -13.6677,32.3307 0,11.6683 4.50019,22.3338 13.6677,31.8356 9.16751,9.49864 20.6655,14.166 34.3332,14.166 13.6677,0 25.1657,-4.66733 34.3332,-14.166 9.16751,-9.50179 13.6677,-20.1673 13.6677,-31.8356zm-128.001 0c0,-11.8323 -4.50019,-22.4978 -13.6677,-32.3307 -9.16436,-9.83608 -20.6655,-14.6674 -34.3332,-14.6674 -13.6645,0 -25.1657,4.83131 -34.3332,14.6674 -9.16436,9.83292 -13.6645,20.4984 -13.6645,32.3307 0,11.6683 4.50019,22.3338 13.6645,31.8356 9.16751,9.49864 20.6687,14.166 34.3332,14.166 13.6677,0 25.1689,-4.66733 34.3332,-14.166 9.16751,-9.50179 13.6677,-20.1673 13.6677,-31.8356z"
     id="path68" /></glyph>
   <glyph
   unicode="Ú"
   horiz-adv-x="469"
   id="glyph74"><path
     d="M434.001 184.832c0,-52.334 -19.5019,-97.4998 -58.3353,-135.166 -39.0006,-37.8337 -85.8315,-56.667 -140.833,-56.667 -54.8316,0 -101.666,18.8333 -141.001,56.667 -39.1645,37.6666 -58.8335,82.8324 -58.8335,135.166l0 515.169 81.9999 0 0 -514.835c0,-32.1667 11.6683,-59.499 35.0018,-81.6656 23.1663,-22.3338 50.8329,-33.5007 82.8324,-33.5007 32.1667,0 59.8332,11.1669 82.6684,33.5007 22.9992,22.1666 34.4972,49.4989 34.4972,81.6656l0 514.835 82.003 0 0 -515.169zm-97.0016 656.166l-69.3319 -89.9974 -74.6678 0 65.8345 89.9974 78.1651 0z"
     id="path72" /></glyph>
   <glyph
   unicode="É"
   horiz-adv-x="370"
   id="glyph78"><path
     d="M350.166 0l-61.9998 0c-75.166,0 -137.5,20.6655 -186.999,61.9998 -50.8329,42.6682 -76.1689,97.3327 -76.1689,164 0,40.3345 12.8351,78.0011 38.5023,112.833 24.8314,33.835 57.9978,60.5018 99.6663,80.0005 -19.3347,13.3334 -35.0018,30.8327 -47.0012,52.6683 -12.1666,21.8324 -18.1647,43.3336 -18.1647,64.5006 0,48.4992 17.6665,87.998 52.9994,118.333 35.3329,30.4985 81.1673,45.6673 137.166,45.6673l51.8326 0 0 -77.0014 -51.8326 0c-32.3339,0 -57.6667,-7.83354 -76.3329,-23.5006 -18.499,-15.6671 -27.8337,-36.834 -27.8337,-63.4977 0,-25.1689 11.1669,-46.3358 33.3335,-63.5009 20.8327,-15.6671 44.3333,-23.5006 70.833,-23.5006l31.8324 0 0 -77.0014 -31.8324 0c-45.8344,0 -86.6672,-12.9991 -122.498,-38.9974 -39.1677,-28.3351 -58.6696,-64.0023 -58.6696,-107.002 0,-44.3333 17.8336,-80.6659 53.668,-109.001 34.1661,-26.6637 76.6672,-39.9971 127.5,-39.9971l61.9998 0 0 -77.0014zm11.8323 840.999l-69.3319 -89.9974 -74.6678 0 65.8345 89.9974 78.1651 0z"
     id="path76" /></glyph>
   <glyph
   unicode="¸"
   horiz-adv-x="500"
   id="glyph82"><path
     d="M334.001 -73.3338c0,-18.499 -8.33496,-33.3335 -25.0017,-44.5004 -15.3328,-10.1672 -33.6647,-15.1657 -55.1659,-15.1657 -24.166,0 -49.0006,8.66609 -74.8318,26.0014l23.9989 32.8321c18.499,-9.16751 32.8321,-13.8348 42.9993,-13.8348 13.3334,0 20.0001,4.50019 20.0001,13.6677 0,8.83323 -6.66671,13.3334 -20.0001,13.3334 -4.33305,0 -13.9988,-1.33397 -29.3316,-3.99876l-28.8334 18.1647 44.8316 56.8342 61.9998 0 -27.8337 -32.9993 7.00099 0c17.1682,0 31.6653,-4.66733 42.9993,-14.166 11.5012,-9.50179 17.1682,-21.5012 17.1682,-36.1686z"
     id="path80" /></glyph>
   <glyph
   unicode="§"
   horiz-adv-x="500"
   id="glyph86"><path
     d="M467.001 299.999c0,-27.9977 -7.83354,-53.9991 -23.3335,-77.8308 -15.4999,-24.002 -36.1686,-42.3339 -61.9998,-55.0019 30.1673,-27.6665 45.333,-62.334 45.333,-103.999 0,-48.8335 -18.499,-88.0012 -55.6673,-117.667 -34.9986,-27.6665 -77.3326,-41.4982 -127.166,-41.4982 -53.8351,0 -96.5001,15.1657 -128.169,45.333 -32.8321,30.6656 -49.3318,73.4978 -49.3318,128.831l97.1655 0 0 -8.33181c0,-52.5011 29.3348,-78.8337 88.0012,-78.8337 21.8324,0 39.666,4.83447 53.6648,14.6674 16.3356,10.9998 24.5003,26.834 24.5003,47.3324 0,17.3353 -6.66671,32.9993 -20.0001,47.0012 -13.3334,13.9988 -42.3308,32.9993 -86.9983,57.1653l-89.3352 47.8338c-67.1654,36.1655 -100.666,83.501 -100.666,142.167 0,54.3334 27.6665,100.666 82.9996,138.834 -27.3322,24.9986 -40.9999,57.1653 -40.9999,96.1659 0,47.4995 16.6668,85.9987 49.8332,115.333 31.8356,27.6665 71.8358,41.4982 120.168,41.4982 52.6683,0 94.6679,-13.6645 125.835,-40.9999 32.665,-28.8334 48.8303,-68.6665 48.8303,-119.834l0 -11.3309 -94.4976 0c-1.66825,29.4988 -9.50179,51.3311 -23.6678,65.6642 -14.166,14.3363 -32.8321,21.5012 -56.3327,21.5012 -47.4995,0 -71.1673,-20.3344 -71.1673,-61.0001 0,-26.6668 23.5006,-52.6651 70.3347,-77.6668l121.164 -64.9988c67.6668,-36.6669 101.502,-86.8344 101.502,-150.335zm-102 -8.99722c0,16.9979 -5.33274,31.6653 -16.1685,44.1662 -10.6655,12.4977 -33.3335,28.1648 -68.165,46.667l-102.334 56.1656c-30.8327,-18.1679 -46.3327,-39.8331 -46.3327,-64.9988 0,-15.4999 5.1656,-29.6691 15.6671,-42.1668 10.3312,-12.5009 33.1664,-29.1676 68.165,-50.0003l104.835 -60.6689c29.4988,18.335 44.3333,41.8356 44.3333,70.8361z"
     id="path84" /></glyph>
   <glyph
   unicode=""
   horiz-adv-x="500"
   id="glyph90"><path
     d="M61.9998 0l0 840.999 375.001 0 0 -840.999 -375.001 0zm62.9995 62.9995l249.002 0 0 715 -249.002 0 0 -715z"
     id="path88" /></glyph>
   <glyph
   unicode=""
   horiz-adv-x="500"
   id="glyph94"><path
     d="M61.9998 0l0 840.999 375.001 0 0 -840.999 -375.001 0zm62.9995 62.9995l249.002 0 0 715 -249.002 0 0 -715z"
     id="path92" /></glyph>
   <glyph
   unicode="t"
   horiz-adv-x="221"
   id="glyph98"><path
     d="M226 495.002l-76.9983 0 0 -495.002 -78.0011 0 0 495.002 -75.9986 0 0 71.9998 230.998 0 0 -71.9998z"
     id="path96" /></glyph>
   <glyph
   unicode="c"
   horiz-adv-x="347"
   id="glyph102"><path
     d="M351.998 -6.0013l-34.1661 0c-82.331,0 -152.499,28.5022 -210.667,85.5004 -58.165,56.8342 -87.1655,125.002 -87.1655,204.501 0,79.0008 29.0005,146.999 87.1655,203.833 58.1681,56.8342 128.336,85.1661 210.667,85.1661l34.1661 0 0 -73.9992c-14.9985,1.33397 -26.3326,1.99938 -34.1661,1.99938 -60.1644,0 -111.666,-20.9998 -154.167,-62.9995 -42.4979,-42.1668 -63.6649,-93.1668 -63.6649,-153.167 0,-62.1669 21.9995,-113.665 65.9985,-154.999 43.835,-41.1671 98.3355,-61.8326 163,-61.8326 7.49926,0 15.1688,0 22.9992,0l0 -74.0024z"
     id="path100" /></glyph>
   <glyph
   unicode="R"
   horiz-adv-x="340"
   id="glyph106"><path
     d="M357.833 0l-91.8328 0 -144 248.999 0 -248.999 -81.9999 0 0 700.001 41.8325 0c63.668,0 117.834,-22.3338 162.833,-67.1685 44.8347,-44.6676 67.3357,-97.667 67.3357,-158.834 0,-39.3317 -10.3343,-76.5 -30.9999,-111.499 -20.6687,-34.9986 -49.0006,-62.9995 -85.1693,-83.8321l162 -278.668zm-127.831 474.166c0,33.5007 -10.1672,63.5009 -30.3345,89.8334 -20.1673,26.3357 -46.0016,44.0022 -77.6668,53.1665l0 -285.164c31.9996,9.16436 57.8339,26.6637 78.0011,52.8322 20.0001,25.9983 30.0002,55.8345 30.0002,89.332z"
     id="path104" /></glyph>
   <glyph
   unicode="A"
   horiz-adv-x="388"
   id="glyph110"><path
     d="M395.833 0l-82.9996 0 -49.8332 186.999 -138.169 0 -49.8332 -186.999 -82.9996 0 201.666 726 202.168 -726zm-152.833 264l-49.3349 205.167 -49.8332 -205.167 99.1681 0z"
     id="path108" /></glyph>
   <glyph
   unicode="0"
   horiz-adv-x="504"
   id="glyph114"><path
     d="M481 349.999c0,-93.8322 -14.5002,-171.499 -43.5007,-233.001 -39.1645,-82.6653 -100.833,-124 -185,-124 -84.1664,0 -145.665,41.3342 -184.498,124 -28.6662,61.5015 -43.0025,139.168 -43.0025,233.001 0,93.5011 14.3363,170.666 43.0025,232.001 38.8334,82.6653 100.332,124 184.498,124 84.1664,0 145.835,-41.3342 185,-124 29.0005,-61.3344 43.5007,-138.5 43.5007,-232.001zm-81.9999 0.167141c0,74.3335 -9.00037,134.999 -27.1651,182.168 -24.6675,64.5006 -64.5006,96.6673 -119.335,96.6673 -96.9984,0 -145.501,-92.9996 -145.501,-278.835 0,-74.8318 9.00037,-135.832 26.834,-183 24.3332,-64.8317 63.8352,-97.1655 118.667,-97.1655 54.8348,0 94.6679,32.3339 119.335,97.1655 18.1647,47.8338 27.1651,108.834 27.1651,183z"
     id="path112" /></glyph>
   <glyph
   unicode="ù"
   horiz-adv-x="396"
   id="glyph118"><path
     d="M364.001 150.833c0,-42.6682 -16.4996,-79.4991 -49.3349,-110.499 -32.9993,-30.8359 -71.8327,-46.3358 -116.333,-46.3358 -44.9987,0 -83.9993,15.4999 -116.999,46.3358 -32.8353,30.9999 -49.3349,67.8308 -49.3349,110.499l0 416.168 78.0011 0 0 -408.669c0,-26.3326 8.33181,-48.3321 25.1657,-65.9985 16.6668,-17.4993 37.6666,-26.3357 63.1666,-26.3357 25.0017,0 45.8344,8.83638 62.5012,26.3357 16.8339,17.6665 25.1657,39.666 25.1657,65.9985l0 408.669 78.0011 0 0 -416.168zm-126.002 450.167l-71.8327 0 -73.1667 90.0006 79.168 0 65.8314 -90.0006z"
     id="path116" /></glyph>
   <glyph
   unicode="è"
   horiz-adv-x="291"
   id="glyph122"><path
     d="M280.667 0l-48.8335 0c-62.8323,0 -114.501,16.8339 -154.832,50.3346 -41.3342,34.1661 -62.0029,78.8305 -62.0029,133.832 0,70.0004 36.0015,122.498 107.834,157.667 -33.1664,23.4975 -49.8332,53.4977 -49.8332,90.3317 0,39.1677 16.6668,71.8327 49.8332,98.1684 31.6684,24.5003 67.8339,36.6669 109.001,36.6669l48.8335 0 0 -71.9998 -48.6663 0c-19.5019,0 -37.1683,-5.66702 -52.6683,-17.1682 -16.8339,-12.3337 -25.3329,-27.6665 -25.3329,-45.8344 0,-18.1647 8.49895,-33.3335 25.3329,-45.333 15.1688,-11.1669 32.8353,-16.6668 52.5011,-16.6668l29.3316 0 0 -71.9998 -29.3316 0c-38.6663,0 -71.1673,-10.1672 -97.3327,-30.6656 -27.6665,-21.5012 -41.5014,-49.1678 -41.5014,-82.9996 0,-33.835 13.1663,-61.0001 39.4988,-81.5016 26.3357,-20.4984 59.5021,-30.8327 99.3352,-30.8327l48.8335 0 0 -71.9998zm-37.6666 601l-71.8327 0 -73.1667 90.0006 79.1648 0 65.8345 -90.0006z"
     id="path120" /></glyph>
   <glyph
   unicode="×"
   horiz-adv-x="833"
   id="glyph126"><path
     d="M703 74.1663l-57.1684 -58.165 -225 225.164 -224.164 -225.164 -56.667 58.165 223.666 223.666 -223.666 225 56.667 57.1684 224.164 -224 225 224 57.1684 -57.1684 -224.167 -225 224.167 -223.666z"
     id="path124" /></glyph>
   <glyph
   unicode="Æ"
   horiz-adv-x="606"
   id="glyph130"><path
     d="M587.667 0l-61.9998 0c-50.0003,0 -95.6676,10.0001 -136.668,29.833l7.83354 -29.833 -82.9996 0 -49.8332 186.999 -138.169 0 -49.8332 -186.999 -82.9996 0 201.666 726 107.834 -385.165c25.8343,34.1661 58.4993,60.4986 98.1684,78.9977 -43.1665,30.0002 -64.6677,68.6665 -64.6677,116.169 0,48.4992 17.6665,87.998 53.1665,118.333 35.5001,30.4985 81.0002,45.6673 136.668,45.6673l52.1668 0 0 -77.0014 -52.1668 0c-32.1667,0 -57.4996,-7.83354 -76.0017,-23.5006 -18.499,-15.6671 -27.8337,-36.834 -27.8337,-63.4977 0,-25.1689 11.1669,-46.3358 33.6678,-63.5009 20.4984,-15.6671 43.8319,-23.5006 70.1676,-23.5006l32.1667 0 0 -77.0014 -32.3339 0c-45.5001,0 -86.1658,-12.9991 -122,-38.9974 -39.1677,-28.3351 -58.6664,-64.0023 -58.6664,-107.002 0,-44.3333 17.8336,-80.6659 53.3337,-109.001 34.1661,-26.6637 76.6672,-39.9971 127.333,-39.9971l61.9998 0 0 -77.0014zm-343.667 264l-49.3349 205.167 -49.8332 -205.167 99.1681 0z"
     id="path128" /></glyph>
   <glyph
   unicode="µ"
   horiz-adv-x="589"
   id="glyph134"><path
     d="M546.834 528.001l-70.5019 -359.334c-6.16529,-30.3345 -9.3315,-51.9997 -9.3315,-64.6677 0,-11.8323 2.5008,-20.3313 7.33212,-24.9986 4.83447,-4.66733 13.3334,-7.00099 25.6671,-7.00099 6.49957,0 9.83292,0 9.83292,0 1.16683,0 3.66764,0 7.16813,0l-16.0014 -78.6665c-19.0004,-5.49988 -43.3336,-8.33181 -73.3338,-8.33181 -24.6675,0 -42.9993,4.99845 -54.8316,15.1657 -11.8355,10.0001 -17.8336,25.3329 -17.8336,45.6673l0 7.33212c-28.0008,-45.5001 -69.335,-68.165 -124,-68.165 -25.8343,0 -48.1681,4.33305 -67.1685,12.832 -19.0004,8.66609 -34.9986,21.6652 -47.6667,39.3317l-48.3321 -247.166 -111.833 0 144.999 738.002 111.833 0 -61.0001 -309.333c-1.33397,-6.16844 -2.99907,-15.1688 -4.83447,-26.834 -0.665409,-5.83416 -0.999691,-13.8348 -0.999691,-23.8349 0,-31.1639 7.50241,-54.9988 22.3338,-71.3313 15.0017,-16.4996 37.1683,-24.6675 66.4999,-24.6675 39.666,0 71.3344,14.5002 94.6679,43.6679 23.5006,29.0005 41.4982,76.3329 54.1662,142l53.3337 270.333 109.834 0z"
     id="path132" /></glyph>
   <glyph
   unicode="¤"
   horiz-adv-x="504"
   id="glyph138"><path
     d="M484.667 75.166l-3.83478 -82.167 -34.1661 0c-82.6653,0 -156.999,25.0017 -223,74.8349 -65.8314,49.8332 -109.666,113.832 -131.001,192.001l-79.6662 0 18.5022 77.1654 49.3318 0c-0.665409,7.49926 -0.665409,15.1657 0,22.9992l-67.8339 0 18.5022 77.0014 61.1641 0c20.5015,79.4991 63.668,144.167 129.503,194 65.9985,50.0003 140.833,74.9989 224.498,74.9989 6.83385,0 18.1679,-0.665409 34.1661,-1.99938l0 -78.0011c-14.6642,1.33397 -26.1654,2.00254 -34.1661,2.00254 -61.0001,0 -115.832,-17.3353 -164.832,-52.0029 -49.0006,-34.6644 -83.3339,-80.997 -102.833,-138.998l215.832 0 -19.0004 -77.0014 -212.001 0c-0.665409,-7.83354 -0.665409,-15.4999 0,-22.9992l208.002 0 -19.0004 -77.1654 -172.833 0c20.1641,-56.8342 55.1659,-102.167 104.999,-136.002 49.8332,-33.8318 104.832,-50.8329 164.999,-50.8329 5.83416,0 14.6674,0.334282 26.3326,1.16683l8.33496 0.999691z"
     id="path136" /></glyph>
   <glyph
   unicode=""
   horiz-adv-x="500"
   id="glyph142"><path
     d="M61.9998 0l0 840.999 375.001 0 0 -840.999 -375.001 0zm62.9995 62.9995l249.002 0 0 715 -249.002 0 0 -715z"
     id="path140" /></glyph>
   <glyph
   unicode=""
   horiz-adv-x="500"
   id="glyph146"><path
     d="M61.9998 0l0 840.999 375.001 0 0 -840.999 -375.001 0zm62.9995 62.9995l249.002 0 0 715 -249.002 0 0 -715z"
     id="path144" /></glyph>
   <glyph
   unicode="q"
   horiz-adv-x="638"
   id="glyph150"><path
     d="M618.001 283.001c0,-50.1675 -13.0023,-97.3327 -38.8334,-141.833 -25.8343,-44.3333 -61.1672,-80.1676 -106.002,-107.169l67.8339 -93.1668 -74.1663 -28.8334 -68.0011 91.836c-28.1648,-7.83354 -55.3331,-11.8355 -81.0002,-11.8355 -82.331,0 -152.499,28.5022 -210.667,85.6675 -58.165,57.1653 -87.1655,125.501 -87.1655,205.334 0,79.3319 29.0005,147.667 87.1655,204.498 58.001,57.0013 128.336,85.5004 210.667,85.5004 82.6684,0 153.334,-28.4991 212.001,-85.5004 58.8335,-56.831 88.1683,-124.999 88.1683,-204.498zm-80.0005 0.167141c0,60.1644 -21.5012,111.332 -64.6677,153.164 -43.1665,41.8356 -94.999,62.6683 -155.501,62.6683 -60.3315,0 -111.666,-20.8327 -154.167,-62.6683 -42.4979,-41.8325 -63.6649,-92.8325 -63.6649,-153.164 0,-60.5018 21.167,-112 63.6649,-154.501 42.5011,-42.5011 94.0025,-63.668 154.167,-63.668 8.5021,0 20.1673,1.33397 35.1689,3.83478l-55.1691 74.1663 76.1689 28.8334 55.1659 -75.6675c33.5007,19.1676 60.0004,45.333 79.4991,78.3354 19.5019,33.1664 29.3348,69.3319 29.3348,108.667z"
     id="path148" /></glyph>
   <glyph
   unicode="`"
   horiz-adv-x="500"
   id="glyph154"><path
     d="M297.999 601l-71.8327 0 -73.1667 90.0006 79.168 0 65.8314 -90.0006z"
     id="path152" /></glyph>
   <glyph
   unicode="O"
   horiz-adv-x="782"
   id="glyph158"><path
     d="M756.999 349.999c0,-97.667 -35.6672,-181.666 -107.166,-251.834 -71.5016,-70.1644 -157.667,-105.166 -258.501,-105.166 -101.335,0 -187.668,35.0018 -259.166,105.166 -71.5016,70.1676 -107.169,154.167 -107.169,251.834 0,97.667 35.6672,181.502 107.169,251.336 71.4984,69.8333 157.831,104.665 259.166,104.665 100.833,0 186.999,-34.8315 258.501,-104.665 71.4984,-69.8333 107.166,-153.669 107.166,-251.336zm-83.9993 -0.331128c0,77.3326 -27.4994,143 -82.5013,197.166 -54.9988,54.1662 -121.499,81.1673 -199.166,81.1673 -77.834,0 -144.334,-27.0011 -199.5,-81.1673 -55.1659,-54.1662 -82.8324,-119.834 -82.8324,-197.166 0,-77.4997 27.6665,-143.501 82.8324,-198.002 55.1659,-54.5005 121.666,-81.6656 199.5,-81.6656 77.3326,0 143.665,27.1651 198.834,81.6656 55.1659,54.5005 82.8324,120.502 82.8324,198.002z"
     id="path156" /></glyph>
   <glyph
   unicode="&gt;"
   horiz-adv-x="833"
   id="glyph162"><path
     d="M704 258.668l-574.999 -235.668 0 88.8337 455.998 185.999 -455.998 185.835 0 90.3317 574.999 -237.166 0 -78.1651z"
     id="path160" /></glyph>
   <glyph
   unicode="-"
   horiz-adv-x="353"
   id="glyph166"><path
     d="M313.001 180.001l-273.001 0 0 83.9993 273.001 0 0 -83.9993z"
     id="path164" /></glyph>
   <glyph
   unicode="ö"
   horiz-adv-x="638"
   id="glyph170"><path
     d="M618.001 282.001c0,-79.3351 -29.3348,-147.169 -88.1683,-203.502 -58.6664,-56.3327 -129.332,-84.5007 -212.001,-84.5007 -82.331,0 -152.666,28.1679 -210.667,84.5007 -58.165,56.3327 -87.1655,124.167 -87.1655,203.502 0,79.1648 29.0005,147.333 87.1655,204.833 58.001,57.4996 128.336,86.1658 210.667,86.1658 82.6684,0 153.334,-28.6662 212.001,-86.1658 58.8335,-57.4996 88.1683,-125.668 88.1683,-204.833zm-80.0005 0.331128c0,60.1675 -21.6684,111.502 -65.002,154 -43.1665,42.5011 -94.999,63.668 -155.167,63.668 -60.3315,0 -111.666,-21.167 -154.167,-63.668 -42.4979,-42.4979 -63.6649,-93.8322 -63.6649,-154 0,-60.4986 21.167,-111.666 63.6649,-153.167 42.5011,-41.4982 93.8353,-62.1637 154.167,-62.1637 60.5018,0 112.334,20.8327 155.501,62.498 43.1665,41.6685 64.6677,92.5014 64.6677,152.833zm-111 364.666c0,-11.8323 -4.50019,-22.4978 -13.6677,-32.3307 -9.16751,-9.83608 -20.6655,-14.6674 -34.3332,-14.6674 -13.6677,0 -25.1657,4.83131 -34.3332,14.6674 -9.16751,9.83292 -13.6677,20.4984 -13.6677,32.3307 0,11.6683 4.50019,22.3338 13.6677,31.8356 9.16751,9.49864 20.6655,14.166 34.3332,14.166 13.6677,0 25.1657,-4.66733 34.3332,-14.166 9.16751,-9.50179 13.6677,-20.1673 13.6677,-31.8356zm-128.001 0c0,-11.8323 -4.50019,-22.4978 -13.6645,-32.3307 -9.16751,-9.83608 -20.6687,-14.6674 -34.3332,-14.6674 -13.6677,0 -25.1689,4.83131 -34.3332,14.6674 -9.16751,9.83292 -13.6677,20.4984 -13.6677,32.3307 0,11.6683 4.50019,22.3338 13.6677,31.8356 9.16436,9.49864 20.6655,14.166 34.3332,14.166 13.6645,0 25.1657,-4.66733 34.3332,-14.166 9.16436,-9.50179 13.6645,-20.1673 13.6645,-31.8356z"
     id="path168" /></glyph>
   <glyph
   unicode="å"
   horiz-adv-x="313"
   id="glyph174"><path
     d="M326.334 0l-79.0008 0 -40.1674 149.001 -101 0 -40.0003 -149.001 -79.1648 0 168.998 609.001 170.335 -609.001zm-138.169 221.001l-32.1667 127.166 -30.8327 -127.166 62.9995 0zm51.8357 474.831c0,-20.0001 -8.16782,-37.3323 -24.5003,-52.3308 -16.1685,-15.0017 -36.0015,-22.5009 -59.5021,-22.5009 -23.8317,0 -43.8319,7.33212 -60.3315,22.1666 -16.4996,14.8314 -24.6675,32.3339 -24.6675,52.6651 0,20.5015 8.16782,38.168 24.6675,53.0025 16.4996,14.8314 36.4998,22.1666 60.3315,22.1666 23.8349,0 43.6679,-7.33527 59.8332,-22.1666 16.1685,-14.8345 24.1692,-32.501 24.1692,-53.0025zm-60.0004 0c0,16.8339 -8.00068,25.1689 -24.002,25.1689 -17.3322,0 -25.9983,-8.33496 -25.9983,-25.1689 0,-15.8311 8.66609,-23.8317 25.9983,-23.8317 16.0014,0 24.002,8.00068 24.002,23.8317z"
     id="path172" /></glyph>
   <glyph
   unicode="Ô"
   horiz-adv-x="782"
   id="glyph178"><path
     d="M756.999 349.999c0,-97.667 -35.6672,-181.666 -107.166,-251.834 -71.5016,-70.1644 -157.667,-105.166 -258.501,-105.166 -101.335,0 -187.668,35.0018 -259.166,105.166 -71.5016,70.1676 -107.169,154.167 -107.169,251.834 0,97.667 35.6672,181.502 107.169,251.336 71.4984,69.8333 157.831,104.665 259.166,104.665 100.833,0 186.999,-34.8315 258.501,-104.665 71.4984,-69.8333 107.166,-153.669 107.166,-251.336zm-83.9993 -0.331128c0,77.3326 -27.4994,143 -82.5013,197.166 -54.9988,54.1662 -121.499,81.1673 -199.166,81.1673 -77.834,0 -144.334,-27.0011 -199.5,-81.1673 -55.1659,-54.1662 -82.8324,-119.834 -82.8324,-197.166 0,-77.4997 27.6665,-143.501 82.8324,-198.002 55.1659,-54.5005 121.666,-81.6656 199.5,-81.6656 77.3326,0 143.665,27.1651 198.834,81.6656 55.1659,54.5005 82.8324,120.502 82.8324,198.002zm-187.999 401.333l-72.167 0 -26.834 33.8318 -26.834 -33.8318 -74.1663 0 65.8345 89.9974 68.3322 0 65.8345 -89.9974z"
     id="path176" /></glyph>
   <glyph
   unicode="Ã"
   horiz-adv-x="388"
   id="glyph182"><path
     d="M395.833 0l-82.9996 0 -49.8332 186.999 -138.169 0 -49.8332 -186.999 -82.9996 0 201.666 726 202.168 -726zm-152.833 264l-49.3349 205.167 -49.8332 -205.167 99.1681 0zm72.9995 548.165c0,-16.3325 -7.16813,-30.4985 -21.5012,-42.8322 -14.166,-12.1666 -31.4981,-18.3319 -51.6654,-18.3319 -24.3332,0 -47.4995,12.1666 -69.6662,36.3326 -7.49926,7.83354 -12.8351,11.6652 -16.0014,11.6652 -9.83292,0 -14.5002,-9.00037 -14.166,-26.998 0.167141,-2.83509 0.167141,-9.83292 0,-20.9998l-59.0007 0 0 33.8318c0,16.3325 7.16813,30.6656 21.5012,43.3336 14.166,12.5009 31.4981,18.8333 51.6654,18.8333 24.6675,0 47.4995,-12.1666 68.6665,-36.6669 7.16813,-8.16782 12.8351,-12.3337 17.0011,-12.3337 9.83292,0 14.5002,9.33465 14.166,28.0008 0.167141,3.16621 0.167141,10.1672 0,20.9998l59.0007 0 0 -34.8347z"
     id="path180" /></glyph>
   <glyph
   unicode="²"
   horiz-adv-x="246"
   id="glyph186"><path
     d="M223 619.168c0,-22.5009 -8.00068,-44.5004 -23.8349,-66.0017 -1.99938,-2.5008 -22.9992,-23.6678 -62.9995,-63.5009 -24.9986,-24.9986 -39.4988,-50.0003 -43.3336,-74.6646l126.002 0 0 -60.0004 -192.833 0 0 43.999c0,31.8324 8.99722,61.1672 27.3322,87.834 10.8326,15.6671 31.8324,38.4991 62.9995,68.3322 26.4997,25.5 39.666,46.8341 39.666,64.0023 0,19.1644 -10.3312,28.8334 -30.8327,28.8334 -15.9982,0 -27.6665,-10.0001 -35.1658,-29.8362l-66.0017 0c14.002,59.8332 47.6667,89.8334 101,89.8334 27.0011,0 50.0003,-8.66609 69.1679,-26.1654 19.1676,-17.3322 28.8334,-38.332 28.8334,-62.6652z"
     id="path184" /></glyph>
   <glyph
   unicode="¡"
   horiz-adv-x="195"
   id="glyph190"><path
     d="M57.0013 570l81.9999 0 0 -576.002 -81.9999 0 0 576.002zm-7.00099 81.8327c0,11.9994 4.66733,22.9992 13.8317,32.9993 9.33465,10.1672 20.8358,15.1688 34.5004,15.1688 13.1663,0 24.8346,-5.16875 34.5004,-15.6671 8.83323,-9.66894 13.1663,-20.5015 13.1663,-32.501 0,-11.9994 -4.33305,-22.6681 -13.1663,-31.6653 -9.3315,-10.1672 -20.9998,-15.1688 -34.5004,-15.1688 -13.6645,0 -25.3329,5.00161 -34.6644,15.1688 -9.16751,8.99722 -13.6677,19.6658 -13.6677,31.6653z"
     id="path188" /></glyph>
   <glyph
   unicode=""
   horiz-adv-x="500"
   id="glyph194"><path
     d="M61.9998 0l0 840.999 375.001 0 0 -840.999 -375.001 0zm62.9995 62.9995l249.002 0 0 715 -249.002 0 0 -715z"
     id="path192" /></glyph>
   <glyph
   unicode=""
   horiz-adv-x="500"
   id="glyph198"><path
     d="M61.9998 0l0 840.999 375.001 0 0 -840.999 -375.001 0zm62.9995 62.9995l249.002 0 0 715 -249.002 0 0 -715z"
     id="path196" /></glyph>
   <glyph
   unicode="n"
   horiz-adv-x="351"
   id="glyph202"><path
     d="M317 0l-73.6649 0 -130.335 346.167 0 -346.167 -78.0011 0 0 567.001 73.8352 0 130.165 -345.833 0 345.833 78.0011 0 0 -567.001z"
     id="path200" /></glyph>
   <glyph
   unicode="]"
   horiz-adv-x="247"
   id="glyph206"><path
     d="M199.002 -62.9995l-178.002 0 0 76.9983 95.9987 0 0 672 -95.9987 0 0 77.0014 178.002 0 0 -826z"
     id="path204" /></glyph>
   <glyph
   unicode="L"
   horiz-adv-x="248"
   id="glyph210"><path
     d="M248.999 0l-208.998 0 0 700.001 81.9999 0 0 -623 126.999 0 0 -77.0014z"
     id="path208" /></glyph>
   <glyph
   unicode=";"
   horiz-adv-x="165"
   id="glyph214"><path
     d="M132 317.832c0,-11.8323 -4.50019,-22.4978 -13.6677,-32.1667 -9.16436,-9.83292 -20.6655,-14.6642 -34.3332,-14.6642 -13.6645,0 -25.1657,4.83131 -34.3332,14.6642 -9.16751,9.66894 -13.6645,20.3344 -13.6645,32.1667 0,11.9994 4.49703,22.8352 13.6645,32.501 9.16751,9.83292 20.6687,14.6674 34.3332,14.6674 13.6677,0 25.1689,-4.83447 34.3332,-14.6674 9.16751,-9.66578 13.6677,-20.5015 13.6677,-32.501zm0 -280.667c0,-41.3311 -26.0014,-73.6649 -77.834,-97.1655l-20.1673 31.167c16.6668,9.49864 27.1683,17.4993 31.6684,23.9989 -19.833,7.83354 -29.6659,22.1666 -29.6659,43.0025 0,11.6652 4.49703,22.3306 13.6645,32.1667 9.16751,9.83292 20.6687,14.6642 34.3332,14.6642 13.6677,0 25.1689,-4.83131 34.3332,-14.5002 9.16751,-9.49864 13.6677,-20.6655 13.6677,-33.3335z"
     id="path212" /></glyph>
   <glyph
   unicode="*"
   horiz-adv-x="417"
   id="glyph218"><path
     d="M410.334 533.166l-140.168 -45.333 122.167 -145.999 -91.3345 -25.8343 -90.8331 124 -81.9999 -124 -89.8334 25.8343 111.669 145.999 -143 45.333 27.3322 77.6668 135.668 -54.6676 -7.6664 143.836 94.6647 0 -10.0001 -143.836 136.002 54.6676 27.3322 -77.6668z"
     id="path216" /></glyph>
   <glyph
   unicode="ó"
   horiz-adv-x="638"
   id="glyph222"><path
     d="M618.001 282.001c0,-79.3351 -29.3348,-147.169 -88.1683,-203.502 -58.6664,-56.3327 -129.332,-84.5007 -212.001,-84.5007 -82.331,0 -152.666,28.1679 -210.667,84.5007 -58.165,56.3327 -87.1655,124.167 -87.1655,203.502 0,79.1648 29.0005,147.333 87.1655,204.833 58.001,57.4996 128.336,86.1658 210.667,86.1658 82.6684,0 153.334,-28.6662 212.001,-86.1658 58.8335,-57.4996 88.1683,-125.668 88.1683,-204.833zm-80.0005 0.331128c0,60.1675 -21.6684,111.502 -65.002,154 -43.1665,42.5011 -94.999,63.668 -155.167,63.668 -60.3315,0 -111.666,-21.167 -154.167,-63.668 -42.4979,-42.4979 -63.6649,-93.8322 -63.6649,-154 0,-60.4986 21.167,-111.666 63.6649,-153.167 42.5011,-41.4982 93.8353,-62.1637 154.167,-62.1637 60.5018,0 112.334,20.8327 155.501,62.498 43.1665,41.6685 64.6677,92.5014 64.6677,152.833zm-121 408.669l-69.335 -90.0006 -74.6646 0 65.8314 90.0006 78.1683 0z"
     id="path220" /></glyph>
   <glyph
   unicode="â"
   horiz-adv-x="313"
   id="glyph226"><path
     d="M326.334 0l-79.0008 0 -40.1674 149.001 -101 0 -40.0003 -149.001 -79.1648 0 168.998 609.001 170.335 -609.001zm-138.169 221.001l-32.1667 127.166 -30.8327 -127.166 62.9995 0zm66.8342 379.999l-72.167 0 -26.834 33.8318 -26.834 -33.8318 -74.1663 0 65.8345 90.0006 68.3322 0 65.8345 -90.0006z"
     id="path224" /></glyph>
   <glyph
   unicode="Ñ"
   horiz-adv-x="416"
   id="glyph230"><path
     d="M376 0l-80.1676 0 -173.833 470.167 0 -470.167 -81.9999 0 0 700.001 80.1676 0 173.833 -471.003 0 471.003 81.9999 0 0 -700.001zm-55.0019 812.165c0,-16.3325 -7.16498,-30.4985 -21.4981,-42.8322 -14.166,-12.1666 -31.5013,-18.3319 -51.6686,-18.3319 -24.3332,0 -47.4995,12.1666 -69.6662,36.3326 -7.49926,7.83354 -12.832,11.6652 -15.9982,11.6652 -9.83292,0 -14.5002,-9.00037 -14.166,-26.998 0.163987,-2.83509 0.163987,-9.83292 0,-20.9998l-59.0007 0 0 33.8318c0,16.3325 7.16498,30.6656 21.4981,43.3336 14.1691,12.5009 31.5013,18.8333 51.6686,18.8333 24.6643,0 47.4995,-12.1666 68.6665,-36.6669 7.16498,-8.16782 12.832,-12.3337 16.9979,-12.3337 9.83608,0 14.5002,9.33465 14.1691,28.0008 0.167141,3.16621 0.167141,10.1672 0,20.9998l58.9975 0 0 -34.8347z"
     id="path228" /></glyph>
   <glyph
   unicode="À"
   horiz-adv-x="388"
   id="glyph234"><path
     d="M395.833 0l-82.9996 0 -49.8332 186.999 -138.169 0 -49.8332 -186.999 -82.9996 0 201.666 726 202.168 -726zm-152.833 264l-49.3349 205.167 -49.8332 -205.167 99.1681 0zm-5.00161 487.001l-71.8327 0 -73.1667 89.9974 79.168 0 65.8314 -89.9974z"
     id="path232" /></glyph>
   <glyph
   unicode="¯"
   horiz-adv-x="500"
   id="glyph238"><path
     d="M358 611l-215.999 0 0 64.9988 215.999 0 0 -64.9988z"
     id="path236" /></glyph>
   <glyph
   unicode=""
   horiz-adv-x="500"
   id="glyph242"><path
     d="M61.9998 0l0 840.999 375.001 0 0 -840.999 -375.001 0zm62.9995 62.9995l249.002 0 0 715 -249.002 0 0 -715z"
     id="path240" /></glyph>
   <glyph
   unicode=""
   horiz-adv-x="500"
   id="glyph246"><path
     d="M61.9998 0l0 840.999 375.001 0 0 -840.999 -375.001 0zm62.9995 62.9995l249.002 0 0 715 -249.002 0 0 -715z"
     id="path244" /></glyph>
   <glyph
   unicode="|"
   horiz-adv-x="500"
   id="glyph250"><path
     d="M294.001 -236l-87.0015 0 0 1000 87.0015 0 0 -1000z"
     id="path248" /></glyph>
   <glyph
   unicode="k"
   horiz-adv-x="261"
   id="glyph254"><path
     d="M271.834 567.001l-110.833 -217.835 107.834 -349.167 -77.834 0 -78.0011 246.999 0 -246.999 -78.0011 0 0 567.001 78.0011 0 0 -148.002 79.0008 148.002 79.8334 0z"
     id="path252" /></glyph>
   <glyph
   unicode="Z"
   horiz-adv-x="355"
   id="glyph258"><path
     d="M348.334 700.001l-231.001 -623 229.002 0 0 -77.0014 -339.334 0 230.998 623 -195.832 0 0 77.0014 306.167 0z"
     id="path256" /></glyph>
   <glyph
   unicode="I"
   horiz-adv-x="162"
   id="glyph262"><path
     d="M122 0l-81.9999 0 0 700.001 81.9999 0 0 -700.001z"
     id="path260" /></glyph>
   <glyph
   unicode="8"
   horiz-adv-x="504"
   id="glyph266"><path
     d="M488.001 223c0,-62.8323 -22.9992,-116.835 -69.0008,-162.168 -45.9984,-45.1658 -101.499,-67.8339 -166.501,-67.8339 -64.9988,0 -120.499,22.6681 -166.501,67.8339 -45.9984,45.333 -68.9976,99.3352 -68.9976,162.168 0,39.666 10.1641,77.3326 30.4985,112.498 20.3344,35.3361 48.8335,63.8352 85.1661,85.3332 -33.8318,33.5007 -50.6657,73.1667 -50.6657,119.168 0,44.8316 16.6668,83.8321 50.0003,116.667 33.5007,32.8321 73.8321,49.3318 121,49.3318 47.1652,0 87.6669,-16.4996 121.499,-49.3318 33.6678,-32.8353 50.5017,-71.8358 50.5017,-116.667 0,-44.6676 -17.6665,-84.3335 -53.0025,-119.168 36.1686,-21.4981 64.6677,-49.9972 85.1693,-85.4972 20.4984,-35.5001 30.8327,-73.0027 30.8327,-112.334zm-147.002 317c0,25.1657 -8.49895,45.9984 -25.5,62.8323 -17.165,16.8339 -38.1649,25.1689 -62.9995,25.1689 -24.5003,0 -45.5001,-8.33496 -62.6652,-25.1689 -17.1682,-16.8339 -25.8343,-37.6666 -25.8343,-62.8323 0,-25.1657 8.66609,-46.0016 25.8343,-62.8323 17.165,-16.8339 38.1649,-25.1689 62.6652,-25.1689 24.8346,0 45.8344,8.33496 62.9995,25.1689 17.0011,16.8308 25.5,37.6666 25.5,62.8323zm65.002 -317.334c0,42.8353 -14.8345,78.6665 -44.6676,107.834 -29.833,29.0005 -65.9985,43.5007 -108.332,43.5007 -42.3339,0 -78.3354,-14.5002 -107.834,-43.5007 -29.4988,-29.1676 -44.1662,-64.9988 -44.1662,-107.834 0,-42.3339 14.8345,-78.4994 44.6676,-108.165 29.833,-29.6691 65.6642,-44.5004 107.333,-44.5004 41.9996,0 77.998,14.8314 107.998,44.5004 30.0002,29.6659 45.0019,65.8314 45.0019,108.165z"
     id="path264" /></glyph>
   <glyph
   unicode="'"
   horiz-adv-x="194"
   id="glyph270"><path
     d="M134.668 700.001l-5.66702 -133 -63.0026 0 -5.99815 133 74.6678 0z"
     id="path268" /></glyph>
   <glyph
   unicode="ð"
   horiz-adv-x="407"
   id="glyph274"><path
     d="M388 283.332c0,-76.8311 -27.6665,-143 -82.9996,-198.333 -56.3327,-56.667 -124.334,-84.999 -204,-84.999l-64.9988 0 0 248.999 -55.0019 0 0 74.0024 55.0019 0 0 244 64.9988 0c79.6662,0 147.667,-28.3351 204,-85.0021 55.3331,-55.6673 82.9996,-121.833 82.9996,-198.667zm-78.0011 -0.163987c0,55.3331 -18.8333,103.167 -56.4999,143.331 -37.8337,40.1674 -84.1664,62.8355 -139.499,67.6668l0 -171.165 86.1658 0 0 -74.0024 -86.1658 0 0 -177.166c55.3331,4.83447 101.666,27.4994 139.499,67.8339 37.6666,40.3345 56.4999,88.1652 56.4999,143.501z"
     id="path272" /></glyph>
   <glyph
   unicode="ß"
   horiz-adv-x="737"
   id="glyph278"><path
     d="M355.001 178.166c0,-53.4977 -19.3347,-97.4998 -57.8339,-132.164 -38.4991,-34.6675 -88.1683,-52.0029 -148.834,-52.0029 -58.8335,0 -111,18.0007 -156.333,53.8351l18.5022 92.3342c41.4982,-49.502 87.1655,-74.1695 137.333,-74.1695 37.4994,0 67.6668,10.1672 90.666,30.3345 22.9992,20.1673 34.5004,46.3327 34.5004,78.4994 0,42.6682 -20.6687,75.8346 -61.9998,99.5024 -38.8334,18.499 -77.4997,37.3323 -116.002,56.1656 -41.3311,26.3326 -61.9998,63.6649 -61.9998,112.167 0,37.8337 15.4999,69.1647 46.3327,94.1665 29.0005,24.166 63.5009,36.1655 103.501,36.1655 34.3332,0 66.4999,-8.83323 96.8344,-26.3326l-19.0004 -83.8321c-28.0008,25.5 -53.1665,38.1649 -75.5003,38.1649 -19.4987,0 -35.8343,-4.50019 -48.8335,-13.6677 -14.8345,-10.8326 -22.3338,-25.5 -22.3338,-44.4973 0,-22.1666 14.002,-41.3342 42.1668,-57.6667 24.166,-10.6686 48.3352,-21.3341 72.5012,-32.1667 38.8334,-17.3353 67.4996,-36.4998 86.1658,-57.6667 26.834,-30.3345 40.1674,-69.335 40.1674,-117.169zm369.999 0c0,-53.4977 -19.3347,-97.4998 -57.8339,-132.164 -38.4991,-34.6675 -88.1652,-52.0029 -148.834,-52.0029 -58.8304,0 -110.997,18.0007 -156.333,53.8351l18.5022 92.3342c41.4982,-49.502 87.1655,-74.1695 137.333,-74.1695 37.4994,0 67.6668,10.1672 90.666,30.3345 22.9992,20.1673 34.5004,46.3327 34.5004,78.4994 0,42.6682 -20.6655,75.8346 -61.9998,99.5024 -38.8334,18.499 -77.4997,37.3323 -115.999,56.1656 -41.3342,26.3326 -62.0029,63.6649 -62.0029,112.167 0,37.8337 15.5031,69.1647 46.3358,94.1665 29.0005,24.166 63.4977,36.1655 103.498,36.1655 34.3332,0 66.4999,-8.83323 96.8344,-26.3326l-19.0004 -83.8321c-28.0008,25.5 -53.1665,38.1649 -75.5003,38.1649 -19.4987,0 -35.8312,-4.50019 -48.8335,-13.6677 -14.8314,-10.8326 -22.3338,-25.5 -22.3338,-44.4973 0,-22.1666 14.002,-41.3342 42.1668,-57.6667 24.1692,-10.6686 48.3352,-21.3341 72.5012,-32.1667 38.8334,-17.3353 67.4996,-36.4998 86.1658,-57.6667 26.834,-30.3345 40.1674,-69.335 40.1674,-117.169z"
     id="path276" /></glyph>
   <glyph
   unicode="Î"
   horiz-adv-x="162"
   id="glyph282"><path
     d="M122 0l-81.9999 0 0 700.001 81.9999 0 0 -700.001zm58.001 751.001l-72.167 0 -26.834 33.8318 -26.834 -33.8318 -74.1663 0 65.8345 89.9974 68.3322 0 65.8345 -89.9974z"
     id="path280" /></glyph>
   <glyph
   unicode="½"
   horiz-adv-x="492"
   id="glyph286"><path
     d="M128.001 349.999l-66.0017 0 0 290.002 -40.9999 0 0 60.0004 107.002 0 0 -350.002zm288.999 350.002l-345.168 -700.001 -72.8324 0 345.168 700.001 72.8324 0zm51 -435.834c0,-22.5009 -8.00068,-44.5004 -23.8349,-66.0017 -1.99938,-2.49765 -22.9992,-23.6646 -62.9995,-63.4977 -24.9986,-25.0017 -39.4988,-50.0003 -43.3336,-74.6678l126.002 0 0 -60.0004 -192.833 0 0 43.999c0,31.8356 8.99722,61.1672 27.3322,87.834 10.8326,15.6671 31.8324,38.4991 62.9995,68.3322 26.4997,25.5 39.666,46.8341 39.666,64.0023 0,19.1644 -10.3312,28.8334 -30.8327,28.8334 -15.9982,0 -27.6665,-10.0001 -35.1658,-29.833l-66.0017 0c14.002,59.8332 47.6667,89.8334 101,89.8334 27.0011,0 50.0003,-8.66924 69.1679,-26.1686 19.1676,-17.3322 28.8334,-38.332 28.8334,-62.6652z"
     id="path284" /></glyph>
   <glyph
   unicode="¬"
   horiz-adv-x="833"
   id="glyph290"><path
     d="M710.001 175.999l-81.9999 0 0 164 -504.002 0 0 81.0002 586.002 0 0 -245z"
     id="path288" /></glyph>
   <glyph
   unicode=""
   horiz-adv-x="500"
   id="glyph294"><path
     d="M61.9998 0l0 840.999 375.001 0 0 -840.999 -375.001 0zm62.9995 62.9995l249.002 0 0 715 -249.002 0 0 -715z"
     id="path292" /></glyph>
   <glyph
   unicode=""
   horiz-adv-x="500"
   id="glyph298"><path
     d="M61.9998 0l0 840.999 375.001 0 0 -840.999 -375.001 0zm62.9995 62.9995l249.002 0 0 715 -249.002 0 0 -715z"
     id="path296" /></glyph>
   <glyph
   unicode="y"
   horiz-adv-x="297"
   id="glyph302"><path
     d="M306.833 567.001l-118.834 -318.835 0 -248.166 -77.998 0 0 248.166 -119.001 318.835 77.6668 0 80.0005 -212.001 79.1648 212.001 79.0008 0z"
     id="path300" /></glyph>
   <glyph
   unicode="h"
   horiz-adv-x="351"
   id="glyph306"><path
     d="M317 0l-78.0011 0 0 297.999 -125.999 0 0 -297.999 -78.0011 0 0 567.001 78.0011 0 0 -197.002 125.999 0 0 197.002 78.0011 0 0 -567.001z"
     id="path304" /></glyph>
   <glyph
   unicode="W"
   horiz-adv-x="705"
   id="glyph310"><path
     d="M713.666 700.001l-202.666 -730.001 -158.166 524.166 -160.168 -524.166 -200.667 730.001 82.9996 0 119.666 -482.166 158.169 509.164 156.665 -509.164 122.167 482.166 81.9999 0z"
     id="path308" /></glyph>
   <glyph
   unicode="F"
   horiz-adv-x="308"
   id="glyph314"><path
     d="M313.001 623l-191.001 0 0 -174 126.999 0 0 -77.0014 -126.999 0 0 -371.999 -81.9999 0 0 700.001 273.001 0 0 -77.0014z"
     id="path312" /></glyph>
   <glyph
   unicode="5"
   horiz-adv-x="504"
   id="glyph318"><path
     d="M475.001 223c0,-62.8323 -23.1695,-116.835 -69.5022,-162.168 -46.4998,-45.1658 -102.331,-67.8339 -167.831,-67.8339 -46.1687,0 -88.6666,12.668 -127.336,38.168 -39.8331,25.9983 -70.833,62.334 -93.3308,109.001l92.8325 0c32.8321,-46.8341 75.5003,-70.1676 127.834,-70.1676 41.9996,0 77.998,14.8314 108.165,44.5004 30.1673,29.6659 45.1658,65.8314 45.1658,108.165 0,42.1668 -14.9985,77.6668 -44.8316,106.834 -30.0002,29.0005 -66.1688,43.5007 -108.5,43.5007l-174.836 0 67.0014 327 272.001 0 0 -77.0014 -206.167 0 -34.6675 -171.001 76.6672 0c65.5003,0 121.332,-22.4978 167.831,-67.6668 46.3327,-44.9987 69.5022,-98.8338 69.5022,-161.332z"
     id="path316" /></glyph>
   <glyph
   unicode="$"
   horiz-adv-x="504"
   id="glyph322"><path
     d="M434.165 578.332l-20.0001 -96.333c-42.665,50.6689 -88.3323,76.0017 -137.166,76.0017 -32.8321,0 -61.1672,-9.33465 -84.999,-27.8337 -26.0014,-20.1673 -39.0006,-45.8344 -39.0006,-77.1686 0,-39.666 20.9998,-70.6659 62.9995,-93.1668 38.6663,-18.3319 77.3326,-36.3326 116.002,-54.1662 41.9996,-25.8311 62.9995,-62.3309 62.9995,-109.834 0,-28.9973 -9.66894,-54.8316 -28.8334,-77.4997 -19.1676,-22.4978 -43.5007,-38.4991 -73.1667,-47.4995l0 -70.833 -81.9999 0 0 67.0014c-23.3335,3.83162 -46.3358,12.1666 -68.8336,24.8314l19.0004 88.3323c29.3316,-26.1654 55.1659,-39.1645 77.6668,-39.1645 18.499,0 34.1661,4.66733 47.1652,14.166 14.6674,10.6655 21.9995,24.5003 21.9995,41.5014 0,32.8321 -22.8321,55.3331 -68.3322,67.3325 -49.3349,12.9991 -89.4991,35.3329 -120.499,66.8342 -34.1692,34.8315 -51.1671,76.1657 -51.1671,124 0,40.4985 13.8317,76.3329 41.4982,107.998 26.3326,30.1673 60.1675,51.1671 101.502,62.9995l0 73.1698 81.9999 0 0 -65.002c50.8329,-3.33335 97.831,-21.8324 141.165,-55.6673z"
     id="path320" /></glyph>
   <glyph
   unicode="þ"
   horiz-adv-x="300"
   id="glyph326"><path
     d="M291.002 287.999c0,-47.8338 -17.1682,-89.332 -51.5014,-124.665 -34.3332,-35.3329 -76.5,-54.6676 -126.5,-58.3353l0 -104.999 -78.0011 0 0 567.001 78.0011 0 0 -95.0022c50.0003,-3.16621 92.1671,-22.8321 126.5,-58.4993 34.3332,-35.8343 51.5014,-77.6668 51.5014,-125.501zm-78.0011 0c0,29.0005 -9.50179,54.0022 -28.4991,74.8349 -19.0004,20.8327 -42.8353,32.8321 -71.5016,36.1655l0 -221.001c28.6662,3.33335 52.5011,15.1688 71.5016,35.6672 18.9973,20.5015 28.4991,45.333 28.4991,74.3335z"
     id="path324" /></glyph>
   <glyph
   unicode="í"
   horiz-adv-x="148"
   id="glyph330"><path
     d="M113 0l-78.0011 0 0 567.001 78.0011 0 0 -567.001zm63.9991 691.001l-69.3319 -90.0006 -74.6678 0 65.8345 90.0006 78.1651 0z"
     id="path328" /></glyph>
   <glyph
   unicode="Ü"
   horiz-adv-x="469"
   id="glyph334"><path
     d="M434.001 184.832c0,-52.334 -19.5019,-97.4998 -58.3353,-135.166 -39.0006,-37.8337 -85.8315,-56.667 -140.833,-56.667 -54.8316,0 -101.666,18.8333 -141.001,56.667 -39.1645,37.6666 -58.8335,82.8324 -58.8335,135.166l0 515.169 81.9999 0 0 -514.835c0,-32.1667 11.6683,-59.499 35.0018,-81.6656 23.1663,-22.3338 50.8329,-33.5007 82.8324,-33.5007 32.1667,0 59.8332,11.1669 82.6684,33.5007 22.9992,22.1666 34.4972,49.4989 34.4972,81.6656l0 514.835 82.003 0 0 -515.169zm-87.0015 612.167c0,-11.8323 -4.50019,-22.5009 -13.6677,-32.3339 -9.16436,-9.83292 -20.6655,-14.6642 -34.3332,-14.6642 -13.6645,0 -25.1657,4.83131 -34.3332,14.6642 -9.16436,9.83292 -13.6645,20.5015 -13.6645,32.3339 0,11.6683 4.50019,22.3338 13.6645,31.8324 9.16751,9.50179 20.6687,14.1691 34.3332,14.1691 13.6677,0 25.1689,-4.66733 34.3332,-14.1691 9.16751,-9.49864 13.6677,-20.1641 13.6677,-31.8324zm-128.001 0c0,-11.8323 -4.49703,-22.5009 -13.6645,-32.3339 -9.16751,-9.83292 -20.6687,-14.6642 -34.3332,-14.6642 -13.6677,0 -25.1689,4.83131 -34.3332,14.6642 -9.16751,9.83292 -13.6677,20.5015 -13.6677,32.3339 0,11.6683 4.50019,22.3338 13.6677,31.8324 9.16436,9.50179 20.6655,14.1691 34.3332,14.1691 13.6645,0 25.1657,-4.66733 34.3332,-14.1691 9.16751,-9.49864 13.6645,-20.1641 13.6645,-31.8324z"
     id="path332" /></glyph>
   <glyph
   unicode="Ë"
   horiz-adv-x="370"
   id="glyph338"><path
     d="M350.166 0l-61.9998 0c-75.166,0 -137.5,20.6655 -186.999,61.9998 -50.8329,42.6682 -76.1689,97.3327 -76.1689,164 0,40.3345 12.8351,78.0011 38.5023,112.833 24.8314,33.835 57.9978,60.5018 99.6663,80.0005 -19.3347,13.3334 -35.0018,30.8327 -47.0012,52.6683 -12.1666,21.8324 -18.1647,43.3336 -18.1647,64.5006 0,48.4992 17.6665,87.998 52.9994,118.333 35.3329,30.4985 81.1673,45.6673 137.166,45.6673l51.8326 0 0 -77.0014 -51.8326 0c-32.3339,0 -57.6667,-7.83354 -76.3329,-23.5006 -18.499,-15.6671 -27.8337,-36.834 -27.8337,-63.4977 0,-25.1689 11.1669,-46.3358 33.3335,-63.5009 20.8327,-15.6671 44.3333,-23.5006 70.833,-23.5006l31.8324 0 0 -77.0014 -31.8324 0c-45.8344,0 -86.6672,-12.9991 -122.498,-38.9974 -39.1677,-28.3351 -58.6696,-64.0023 -58.6696,-107.002 0,-44.3333 17.8336,-80.6659 53.668,-109.001 34.1661,-26.6637 76.6672,-39.9971 127.5,-39.9971l61.9998 0 0 -77.0014zm-13.1663 797c0,-11.8323 -4.50019,-22.5009 -13.6677,-32.3339 -9.16436,-9.83292 -20.6655,-14.6642 -34.3332,-14.6642 -13.6645,0 -25.1657,4.83131 -34.3332,14.6642 -9.16436,9.83292 -13.6645,20.5015 -13.6645,32.3339 0,11.6683 4.50019,22.3338 13.6645,31.8324 9.16751,9.50179 20.6687,14.1691 34.3332,14.1691 13.6677,0 25.1689,-4.66733 34.3332,-14.1691 9.16751,-9.49864 13.6677,-20.1641 13.6677,-31.8324zm-128.001 0c0,-11.8323 -4.49703,-22.5009 -13.6645,-32.3339 -9.16751,-9.83292 -20.6687,-14.6642 -34.3332,-14.6642 -13.6677,0 -25.1689,4.83131 -34.3332,14.6642 -9.16751,9.83292 -13.6677,20.5015 -13.6677,32.3339 0,11.6683 4.50019,22.3338 13.6677,31.8324 9.16436,9.50179 20.6655,14.1691 34.3332,14.1691 13.6645,0 25.1657,-4.66733 34.3332,-14.1691 9.16751,-9.49864 13.6645,-20.1641 13.6645,-31.8324z"
     id="path336" /></glyph>
   <glyph
   unicode="º"
   horiz-adv-x="431"
   id="glyph342"><path
     d="M410.999 527.834c0,-49.4989 -19.0004,-91.8328 -57.1653,-127.002 -38.0009,-35.1658 -83.9993,-52.8322 -138.002,-52.8322 -53.8319,0 -99.8335,17.6665 -138.165,52.9994 -38.4991,35.3329 -57.6667,77.6668 -57.6667,126.835 0,49.4989 19.1676,91.8328 57.6667,127.166 38.332,35.3329 84.3335,52.9994 138.165,52.9994 54.0022,0 100.001,-17.6665 138.002,-52.9994 38.1649,-35.3329 57.1653,-77.6668 57.1653,-127.166zm0 -250.834l-390.999 0 0 60.0004 390.999 0 0 -60.0004zm-66.9982 250.834c0,33.1664 -12.5009,61.4983 -37.4994,84.999 -25.0017,23.5006 -55.3362,35.1689 -90.6691,35.1689 -35.5001,0 -65.8314,-11.6683 -91.0003,-35.1689 -25.1657,-23.5006 -37.8306,-51.8326 -37.8306,-84.999 0,-32.9993 12.6649,-61.0001 37.8306,-84.1664 25.1689,-23.1663 55.5002,-34.6675 91.0003,-34.6675 35.3329,0 65.6674,11.5012 90.6691,34.5004 24.9986,22.9992 37.4994,51 37.4994,84.3335z"
     id="path340" /></glyph>
   <glyph
   unicode="©"
   horiz-adv-x="833"
   id="glyph346"><path
     d="M777.999 357c0,-49.4989 -9.00037,-96.1659 -26.834,-140.168 -36.8309,-89.9974 -102.498,-154.498 -196.832,-194 -44.9987,-18.499 -91.1674,-27.8305 -138.333,-27.8305 -97.667,0 -182.335,35.6641 -254,106.998 -34.5004,34.1661 -61.0001,73.5009 -79.3351,117.667 -18.499,44.3333 -27.6665,90.1677 -27.6665,137.333 0,71.3344 20.6687,138.002 61.9998,200.332 41.3342,62.1669 95.0022,106.834 160.834,133.836 43.5007,17.8304 89.6694,26.8308 138.169,26.8308 101,0 186.501,-35.3329 256.665,-105.832 70.1676,-70.5019 105.333,-155.501 105.333,-255.167zm-52.9994 0c0,85.8347 -29.6659,158.667 -88.8337,218.166 -60.1675,59.8332 -133.334,89.8334 -219.166,89.8334 -86.1658,0 -158.5,-29.6659 -216.668,-88.8337 -29.0005,-29.3316 -51.4983,-62.9995 -67.4996,-101.331 -15.8342,-38.168 -23.8317,-77.4997 -23.8317,-117.834 0,-83.9993 30.3313,-156.333 91.0003,-216.999 60.6658,-60.6689 133,-91.0003 216.999,-91.0003 40.0003,0 79.0008,8.00068 117.166,24.166 38.0009,16.1653 71.9998,38.8334 102,68.1682 59.1678,58.165 88.8337,130.165 88.8337,215.665zm-132.334 -72.8324c-2.33051,-46.4998 -20.8327,-82.9996 -55.6642,-109.335 -32.3339,-24.5003 -72.3341,-36.6669 -120.168,-36.6669 -62.8323,0 -111.335,20.6687 -145.501,62.1669 -32.1667,38.5023 -48.3321,89.8334 -48.3321,154 0,64.3334 16.1653,116.667 48.8335,157.169 35.5001,43.6647 84.5007,65.5003 146.999,65.5003 48.4992,0 88.1683,-12.5009 119.168,-37.5026 30.8327,-25.1657 47.8338,-57.9978 50.6657,-98.4995l-81.0002 0c-3.33335,24.3332 -12.832,42.9993 -28.8334,55.8345 -15.9982,12.832 -37.3323,19.3316 -63.9991,19.3316 -37.6666,0 -65.3331,-18.3319 -82.9996,-54.6645 -13.3334,-27.4994 -20.0001,-62.1669 -20.0001,-104.501 0,-103.167 35.9983,-154.832 107.998,-154.832 54.0022,0 84.6678,27.3322 92.1671,81.9999l80.6659 0z"
     id="path344" /></glyph>
   <glyph
   unicode=""
   horiz-adv-x="500"
   id="glyph350"><path
     d="M61.9998 0l0 840.999 375.001 0 0 -840.999 -375.001 0zm62.9995 62.9995l249.002 0 0 715 -249.002 0 0 -715z"
     id="path348" /></glyph>
   <glyph
   unicode=""
   horiz-adv-x="500"
   id="glyph354"><path
     d="M61.9998 0l0 840.999 375.001 0 0 -840.999 -375.001 0zm62.9995 62.9995l249.002 0 0 715 -249.002 0 0 -715z"
     id="path352" /></glyph>
   <glyph
   unicode="v"
   horiz-adv-x="323"
   id="glyph358"><path
     d="M330.835 567.001l-169.834 -582 -169.001 582 78.6665 0 90.3348 -374.168 90.8331 374.168 79.0008 0z"
     id="path356" /></glyph>
   <glyph
   unicode="e"
   horiz-adv-x="291"
   id="glyph362"><path
     d="M280.667 0l-48.8335 0c-62.8323,0 -114.501,16.8339 -154.832,50.3346 -41.3342,34.1661 -62.0029,78.8305 -62.0029,133.832 0,70.0004 36.0015,122.498 107.834,157.667 -33.1664,23.4975 -49.8332,53.4977 -49.8332,90.3317 0,39.1677 16.6668,71.8327 49.8332,98.1684 31.6684,24.5003 67.8339,36.6669 109.001,36.6669l48.8335 0 0 -71.9998 -48.6663 0c-19.5019,0 -37.1683,-5.66702 -52.6683,-17.1682 -16.8339,-12.3337 -25.3329,-27.6665 -25.3329,-45.8344 0,-18.1647 8.49895,-33.3335 25.3329,-45.333 15.1688,-11.1669 32.8353,-16.6668 52.5011,-16.6668l29.3316 0 0 -71.9998 -29.3316 0c-38.6663,0 -71.1673,-10.1672 -97.3327,-30.6656 -27.6665,-21.5012 -41.5014,-49.1678 -41.5014,-82.9996 0,-33.835 13.1663,-61.0001 39.4988,-81.5016 26.3357,-20.4984 59.5021,-30.8327 99.3352,-30.8327l48.8335 0 0 -71.9998z"
     id="path360" /></glyph>
   <glyph
   unicode="T"
   horiz-adv-x="263"
   id="glyph366"><path
     d="M267.999 623l-94.999 0 0 -623 -81.9999 0 0 623 -95.9987 0 0 77.0014 272.998 0 0 -77.0014z"
     id="path364" /></glyph>
   <glyph
   unicode="C"
   horiz-adv-x="423"
   id="glyph370"><path
     d="M424.001 -7.00099l-32.8353 0c-100.833,0 -187.166,35.0018 -258.668,105.166 -71.6655,70.1676 -107.5,154.167 -107.5,251.834 0,97.667 35.6672,181.502 107.169,251.336 71.4984,69.8333 157.831,104.665 258.999,104.665 4.66733,0 15.4999,-0.665409 32.8353,-1.99938l0 -78.0011c-15.0017,1.33397 -26.0014,2.00254 -32.8353,2.00254 -77.834,0 -144.167,-27.0011 -199.333,-81.0002 -55.1659,-54.1694 -82.8324,-119.666 -82.8324,-196.835 0,-78.1651 27.8337,-144.167 83.665,-197.832 55.8345,-53.668 124.334,-80.5019 205.334,-80.5019 8.49895,0 17.1682,0.334282 26.0014,1.16683l0 -80.0005z"
     id="path368" /></glyph>
   <glyph
   unicode="2"
   horiz-adv-x="504"
   id="glyph374"><path
     d="M424.001 541c0,-43.6679 -14.002,-85.9987 -41.8356,-126.999 -15.6671,-22.5009 -45.8313,-56.1688 -90.666,-101.167 -40.1674,-40.3345 -69.0008,-74.3335 -86.6672,-102 -26.1654,-41.9996 -40.1674,-86.6672 -41.8325,-133.832l254 0 0 -77.0014 -336 0 0 68.8336c0,93.5011 44.3333,185.665 133,276.501 47.4995,48.4992 75.3332,77.6637 83.501,87.8309 29.6659,38.168 44.5004,74.0024 44.5004,107.834 0,24.8346 -8.66924,45.5001 -25.8343,62.1669 -17.3353,16.4996 -38.0009,24.8346 -62.1669,24.8346 -43.3336,0 -72.3341,-21.6684 -87.0015,-65.002l-82.9996 0c9.33465,43.6679 30.0002,78.3354 61.8326,104.501 30.8359,25.6671 66.6671,38.4991 107.667,38.4991 47.3355,0 87.6669,-16.3325 120.833,-48.8335 33.1664,-32.4978 49.6692,-71.3313 49.6692,-116.166z"
     id="path372" /></glyph>
   <glyph
   unicode="!"
   horiz-adv-x="195"
   id="glyph378"><path
     d="M138.002 124l-82.003 0 0 576.002 82.003 0 0 -576.002zm7.99753 -81.9999c0,-12.1666 -4.33305,-22.9992 -13.1663,-32.8321 -9.66578,-10.1672 -21.3341,-15.1688 -34.5004,-15.1688 -13.6645,0 -25.1657,5.00161 -34.5004,15.0017 -9.16436,9.83292 -13.8317,20.8327 -13.8317,32.9993 0,11.9994 4.66733,22.9992 13.8317,32.501 9.33465,9.66578 20.8358,14.5002 34.5004,14.5002 13.5006,0 25.0017,-4.83447 34.0021,-14.5002 9.16436,-9.50179 13.6645,-20.5015 13.6645,-32.501z"
     id="path376" /></glyph>
   <glyph
   unicode="û"
   horiz-adv-x="396"
   id="glyph382"><path
     d="M364.001 150.833c0,-42.6682 -16.4996,-79.4991 -49.3349,-110.499 -32.9993,-30.8359 -71.8327,-46.3358 -116.333,-46.3358 -44.9987,0 -83.9993,15.4999 -116.999,46.3358 -32.8353,30.9999 -49.3349,67.8308 -49.3349,110.499l0 416.168 78.0011 0 0 -408.669c0,-26.3326 8.33181,-48.3321 25.1657,-65.9985 16.6668,-17.4993 37.6666,-26.3357 63.1666,-26.3357 25.0017,0 45.8344,8.83638 62.5012,26.3357 16.8339,17.6665 25.1657,39.666 25.1657,65.9985l0 408.669 78.0011 0 0 -416.168zm-64.0023 450.167l-72.167 0 -26.8308 33.8318 -26.834 -33.8318 -74.1663 0 65.8314 90.0006 68.3353 0 65.8314 -90.0006z"
     id="path380" /></glyph>
   <glyph
   unicode="ê"
   horiz-adv-x="291"
   id="glyph386"><path
     d="M280.667 0l-48.8335 0c-62.8323,0 -114.501,16.8339 -154.832,50.3346 -41.3342,34.1661 -62.0029,78.8305 -62.0029,133.832 0,70.0004 36.0015,122.498 107.834,157.667 -33.1664,23.4975 -49.8332,53.4977 -49.8332,90.3317 0,39.1677 16.6668,71.8327 49.8332,98.1684 31.6684,24.5003 67.8339,36.6669 109.001,36.6669l48.8335 0 0 -71.9998 -48.6663 0c-19.5019,0 -37.1683,-5.66702 -52.6683,-17.1682 -16.8339,-12.3337 -25.3329,-27.6665 -25.3329,-45.8344 0,-18.1647 8.49895,-33.3335 25.3329,-45.333 15.1688,-11.1669 32.8353,-16.6668 52.5011,-16.6668l29.3316 0 0 -71.9998 -29.3316 0c-38.6663,0 -71.1673,-10.1672 -97.3327,-30.6656 -27.6665,-21.5012 -41.5014,-49.1678 -41.5014,-82.9996 0,-33.835 13.1663,-61.0001 39.4988,-81.5016 26.3357,-20.4984 59.5021,-30.8327 99.3352,-30.8327l48.8335 0 0 -71.9998zm4.33305 601l-72.167 0 -26.834 33.8318 -26.834 -33.8318 -74.1663 0 65.8345 90.0006 68.3322 0 65.8345 -90.0006z"
     id="path384" /></glyph>
   <glyph
   unicode="Ù"
   horiz-adv-x="469"
   id="glyph390"><path
     d="M434.001 184.832c0,-52.334 -19.5019,-97.4998 -58.3353,-135.166 -39.0006,-37.8337 -85.8315,-56.667 -140.833,-56.667 -54.8316,0 -101.666,18.8333 -141.001,56.667 -39.1645,37.6666 -58.8335,82.8324 -58.8335,135.166l0 515.169 81.9999 0 0 -514.835c0,-32.1667 11.6683,-59.499 35.0018,-81.6656 23.1663,-22.3338 50.8329,-33.5007 82.8324,-33.5007 32.1667,0 59.8332,11.1669 82.6684,33.5007 22.9992,22.1666 34.4972,49.4989 34.4972,81.6656l0 514.835 82.003 0 0 -515.169zm-151.001 566.169l-71.8327 0 -73.1667 89.9974 79.1648 0 65.8345 -89.9974z"
     id="path388" /></glyph>
   <glyph
   unicode="È"
   horiz-adv-x="370"
   id="glyph394"><path
     d="M350.166 0l-61.9998 0c-75.166,0 -137.5,20.6655 -186.999,61.9998 -50.8329,42.6682 -76.1689,97.3327 -76.1689,164 0,40.3345 12.8351,78.0011 38.5023,112.833 24.8314,33.835 57.9978,60.5018 99.6663,80.0005 -19.3347,13.3334 -35.0018,30.8327 -47.0012,52.6683 -12.1666,21.8324 -18.1647,43.3336 -18.1647,64.5006 0,48.4992 17.6665,87.998 52.9994,118.333 35.3329,30.4985 81.1673,45.6673 137.166,45.6673l51.8326 0 0 -77.0014 -51.8326 0c-32.3339,0 -57.6667,-7.83354 -76.3329,-23.5006 -18.499,-15.6671 -27.8337,-36.834 -27.8337,-63.4977 0,-25.1689 11.1669,-46.3358 33.3335,-63.5009 20.8327,-15.6671 44.3333,-23.5006 70.833,-23.5006l31.8324 0 0 -77.0014 -31.8324 0c-45.8344,0 -86.6672,-12.9991 -122.498,-38.9974 -39.1677,-28.3351 -58.6696,-64.0023 -58.6696,-107.002 0,-44.3333 17.8336,-80.6659 53.668,-109.001 34.1661,-26.6637 76.6672,-39.9971 127.5,-39.9971l61.9998 0 0 -77.0014zm-52.1668 751.001l-71.8327 0 -73.1667 89.9974 79.168 0 65.8314 -89.9974z"
     id="path392" /></glyph>
   <glyph
   unicode="·"
   horiz-adv-x="274"
   id="glyph398"><path
     d="M221.001 325c0,-23.8349 -8.16782,-43.5007 -24.5003,-59.1678 -16.4996,-16.4996 -36.3326,-24.8314 -59.5021,-24.8314 -22.8321,0 -42.4979,8.33181 -59.1647,24.8314 -16.4996,16.6668 -24.8346,36.3326 -24.8346,59.1678 0,24.166 7.83354,44.1662 23.6678,60.0004 15.8342,15.9982 35.9983,23.9989 60.3315,23.9989 24.1692,0 44.1693,-8.00068 60.0004,-24.166 16.0014,-16.1685 24.002,-36.0015 24.002,-59.8332z"
     id="path396" /></glyph>
   <glyph
   unicode="¦"
   horiz-adv-x="500"
   id="glyph402"><path
     d="M294.001 329.166l-87.0015 0 0 369.835 87.0015 0 0 -369.835zm0 -500.167l-87.0015 0 0 370.166 87.0015 0 0 -370.166z"
     id="path400" /></glyph>
   <glyph
   unicode=""
   horiz-adv-x="500"
   id="glyph406"><path
     d="M61.9998 0l0 840.999 375.001 0 0 -840.999 -375.001 0zm62.9995 62.9995l249.002 0 0 715 -249.002 0 0 -715z"
     id="path404" /></glyph>
   <glyph
   unicode=""
   horiz-adv-x="500"
   id="glyph410"><path
     d="M61.9998 0l0 840.999 375.001 0 0 -840.999 -375.001 0zm62.9995 62.9995l249.002 0 0 715 -249.002 0 0 -715z"
     id="path408" /></glyph>
   <glyph
   unicode="s"
   horiz-adv-x="368"
   id="glyph414"><path
     d="M355.001 178.166c0,-53.4977 -19.3347,-97.4998 -57.8339,-132.164 -38.4991,-34.6675 -88.1683,-52.0029 -148.834,-52.0029 -58.8335,0 -111,18.0007 -156.333,53.8351l18.5022 92.3342c41.4982,-49.502 87.1655,-74.1695 137.333,-74.1695 37.4994,0 67.6668,10.1672 90.666,30.3345 22.9992,20.1673 34.5004,46.3327 34.5004,78.4994 0,42.6682 -20.6687,75.8346 -61.9998,99.5024 -38.8334,18.499 -77.4997,37.3323 -116.002,56.1656 -41.3311,26.3326 -61.9998,63.6649 -61.9998,112.167 0,37.8337 15.4999,69.1647 46.3327,94.1665 29.0005,24.166 63.5009,36.1655 103.501,36.1655 34.3332,0 66.4999,-8.83323 96.8344,-26.3326l-19.0004 -83.8321c-28.0008,25.5 -53.1665,38.1649 -75.5003,38.1649 -19.4987,0 -35.8343,-4.50019 -48.8335,-13.6677 -14.8345,-10.8326 -22.3338,-25.5 -22.3338,-44.4973 0,-22.1666 14.002,-41.3342 42.1668,-57.6667 24.166,-10.6686 48.3352,-21.3341 72.5012,-32.1667 38.8334,-17.3353 67.4996,-36.4998 86.1658,-57.6667 26.834,-30.3345 40.1674,-69.335 40.1674,-117.169z"
     id="path412" /></glyph>
   <glyph
   unicode="b"
   horiz-adv-x="300"
   id="glyph418"><path
     d="M291.002 184.167c0,-50.5017 -18.6693,-93.8322 -56.0016,-130.001 -37.1652,-36.1655 -82.3342,-54.1662 -134.999,-54.1662l-65.002 0 0 567.001 65.002 0c38.6663,0 71.6655,-13.3334 99.0009,-40.0003 27.3322,-26.6668 40.9999,-58.3353 40.9999,-94.835 0,-33.8318 -13.0023,-64.5006 -39.0006,-92.3342 60.0004,-37.9977 90.0006,-89.9974 90.0006,-155.665zm-129.001 247.999c0,33.1664 -16.3325,53.5008 -49.0006,61.0001l0 -122c32.6681,7.16813 49.0006,27.4994 49.0006,61.0001zm51 -247.999c0,28.8334 -9.66578,54.1662 -28.8334,75.6675 -19.1676,21.4981 -42.8322,33.8318 -71.1673,36.998l0 -223.499c28.6662,3.16621 52.5011,15.1657 71.5016,35.9983 18.9973,20.8358 28.4991,45.8344 28.4991,74.8349z"
     id="path416" /></glyph>
   <glyph
   unicode="Q"
   horiz-adv-x="782"
   id="glyph422"><path
     d="M756.999 348.999c0,-63.1666 -16.3325,-122.331 -49.1646,-177.667 -32.6681,-55.3331 -77.5029,-99.4992 -134.501,-132.331l83.9993 -116.166 -78.1651 -30.8359 -84.0024 114.835c-35.9983,-10.5015 -70.6659,-15.8342 -103.999,-15.8342 -101.167,0 -187.5,35.1658 -258.999,105.501 -71.5016,70.3347 -107.169,154.501 -107.169,252.499 0,98.0012 35.6672,182.001 107.169,252.001 71.4984,70.0004 157.831,104.999 259.166,104.999 100.833,0 186.999,-34.9986 258.501,-104.999 71.4984,-70.0004 107.166,-154 107.166,-252.001zm-83.9993 0.167141c0,77.4997 -27.4994,143.334 -82.5013,197.5 -54.9988,54.1662 -121.499,81.3345 -199.166,81.3345 -77.834,0 -144.334,-27.1683 -199.5,-81.5016 -55.1659,-54.1662 -82.8324,-120.168 -82.8324,-197.832 0,-77.834 27.6665,-144.167 82.8324,-198.667 55.1659,-54.6676 121.499,-81.9999 199.333,-81.9999 19.1676,0 37.4994,1.83224 54.6676,5.33274l-68.8336 96.333 78.1651 31.5013 70.8361 -97.1687c45.333,24.5003 80.997,58.4993 107.5,102.334 26.3326,43.8319 39.4988,91.3345 39.4988,142.833z"
     id="path420" /></glyph>
   <glyph
   unicode="@"
   horiz-adv-x="1000"
   id="glyph426"><path
     d="M951.999 373.001c0,-52.1668 -10.6655,-101.335 -32.1667,-147.5 -21.4981,-46.1687 -51.4983,-84.6678 -89.8334,-115.668 -45.5001,-36.4998 -97.1655,-54.6676 -155.167,-54.6676 -67.6668,0 -101.499,27.0011 -101.499,81.0002l0 1.99938c-34.8347,-54.6645 -84.3335,-81.9999 -148.333,-81.9999 -102,0 -152.833,54.6676 -152.833,164 0,71.0001 20.1641,132.836 60.4986,185.668 43.999,57.4996 100.499,86.3329 169.5,86.3329 56.0016,0 96.333,-23.1663 121,-69.3319l26.834 52.3308 75.166 0 -72.167 -286.164c0,-1.33397 -0.334282,-3.33335 -0.999691,-5.83416 -1.99938,-10.1672 -2.99907,-16.1685 -2.99907,-18.1679 0,-27.3322 15.6639,-40.9999 46.8309,-40.9999 34.8347,0 69.5022,18.8333 104.003,56.1656 23.9989,25.8343 42.1668,54.6676 54.1662,86.6672 11.9994,32.1667 17.9976,67.1685 17.9976,105.333 0,88.8337 -33.6647,158.667 -100.997,209.5 -60.8361,45.5001 -137.169,68.3353 -229.002,68.3353 -89.1649,0 -165.832,-20.3344 -229.998,-61.0001 -122.669,-77.4997 -184,-189.169 -184,-335.001 0,-106.834 36.4998,-190.332 109.332,-250.5 68.165,-56.3327 156.668,-84.5007 265.666,-84.5007 110.666,0 210.834,30.9999 300.333,93.1668l32.6681 -48.3321c-48.1681,-36.4998 -100.001,-64.0023 -155.668,-82.8356 -55.6642,-18.6662 -113.498,-27.9977 -173.331,-27.9977 -63.8352,0 -121,7.6664 -171.335,22.9992 -50.4986,15.1657 -96.333,38.4991 -137.333,69.6662 -51,39.1677 -88.8337,83.9993 -113.501,134.501 -24.4972,50.6657 -36.8309,108.834 -36.8309,174.665 0,109.335 33.3335,204.669 100.001,286 47.4995,58.1681 105.166,102.501 172.833,132.833 66.6639,30.1673 141.499,45.333 224,45.333 113,0 205.665,-28.1648 278.334,-84.4975 85.8315,-66.3328 128.831,-153.501 128.831,-261.5zm-349.832 -27.8337c-4.50019,27.6665 -14.5002,48.9975 -29.833,63.832 -15.1688,14.8345 -35.1689,22.1666 -60.0004,22.1666 -47.4995,0 -85.6675,-24.9986 -114.167,-75.166 -24.166,-41.9996 -36.1686,-88.4995 -36.1686,-139.168 0,-66.4999 28.3351,-99.6663 85.0021,-99.6663 29.1645,0 55.8313,10.8358 79.8334,32.501 23.8317,21.6652 40.0003,49.666 48.4992,84.1664l26.834 111.335z"
     id="path424" /></glyph>
   <glyph
   unicode="/"
   horiz-adv-x="416"
   id="glyph430"><path
     d="M421.999 700.001l-344.997 -700.001 -83.0027 0 345.001 700.001 82.9996 0z"
     id="path428" /></glyph>
   <glyph
   unicode="ø"
   horiz-adv-x="638"
   id="glyph434"><path
     d="M618.001 284.001c0,-79.3351 -29.3348,-147.667 -88.1683,-204.501 -58.6664,-56.9982 -129.332,-85.5004 -212.001,-85.5004 -31.9996,0 -61.8326,4.3362 -89.8334,12.8351l-20.9998 -40.8328 -82.9996 0 36.1686 72.167c-43.3336,26.6668 -77.5029,61.8326 -102.501,105.166 -25.1657,43.4976 -37.6666,90.3317 -37.6666,140.833 0,79.3319 29.0005,147.664 87.1655,205 58.1681,57.1653 128.336,85.8315 210.667,85.8315 35.1689,0 69.5022,-5.99815 103,-17.8336l20.9998 40.836 83.0027 0 -38.0009 -75.1692c40.6657,-27.3322 72.6652,-61.9998 95.9987,-103.999 23.5006,-41.9996 35.1689,-86.9983 35.1689,-134.832zm-80.0005 0.167141c0,70.6659 -28.3351,127.667 -85.0021,170.834l-191.833 -379.668c18.335,-4.83447 37.1683,-7.33212 56.667,-7.33212 60.5018,0 112.334,20.8327 155.501,62.6652 43.1665,41.8325 64.6677,92.9996 64.6677,153.501zm-150.833 205.999c-21.167,6.49957 -44.3333,9.83292 -69.335,9.83292 -60.1644,0 -111.666,-20.8327 -154.167,-62.6652 -42.4979,-41.8356 -63.6649,-93.0028 -63.6649,-153.167 0,-76.8343 31.3342,-136.5 93.8322,-179.169l193.335 385.168z"
     id="path432" /></glyph>
   <glyph
   unicode="ç"
   horiz-adv-x="347"
   id="glyph438"><path
     d="M351.998 -6.0013c-26.998,0 -45.333,0 -55.1659,0l-14.6674 -17.9976c44.5004,0 66.8342,-16.4996 66.8342,-49.8332 0,-19.1676 -9.00037,-34.1692 -26.834,-45.169 -14.9985,-9.3315 -32.665,-13.9988 -53.1665,-13.9988 -24.5003,0 -49.4989,8.66609 -75.166,26.0014l24.002 32.8321c17.9976,-9.16751 32.4978,-13.8348 43.4976,-13.8348 13.1663,0 19.669,4.50019 19.669,13.6677 0,8.83323 -6.50272,13.3334 -19.669,13.3334 -4.83131,0 -14.6642,-1.33397 -29.3316,-3.99876l-28.8334 18.1647 40.0003 49.666c-64.8348,16.6668 -118.169,51 -160.168,103.334 -41.9996,52.1668 -62.9995,111.502 -62.9995,177.835 0,80.4988 29.6659,148.998 88.8337,205.498 58.3321,55.6673 127.998,83.501 208.998,83.501l34.1661 0 0 -73.9992c-14.6642,1.33397 -25.9983,1.99938 -34.1661,1.99938 -60.1644,0 -111.666,-20.9998 -154.167,-62.9995 -42.4979,-42.1668 -63.6649,-93.1668 -63.6649,-153.167 0,-63.6649 22.8321,-116.166 68.3322,-157.333 43.999,-39.666 97.667,-59.499 161.168,-59.499 7.49926,0 14.9985,0 22.4978,0l0 -74.0024z"
     id="path436" /></glyph>
   <glyph
   unicode="Ö"
   horiz-adv-x="782"
   id="glyph442"><path
     d="M756.999 349.999c0,-97.667 -35.6672,-181.666 -107.166,-251.834 -71.5016,-70.1644 -157.667,-105.166 -258.501,-105.166 -101.335,0 -187.668,35.0018 -259.166,105.166 -71.5016,70.1676 -107.169,154.167 -107.169,251.834 0,97.667 35.6672,181.502 107.169,251.336 71.4984,69.8333 157.831,104.665 259.166,104.665 100.833,0 186.999,-34.8315 258.501,-104.665 71.4984,-69.8333 107.166,-153.669 107.166,-251.336zm-83.9993 -0.331128c0,77.3326 -27.4994,143 -82.5013,197.166 -54.9988,54.1662 -121.499,81.1673 -199.166,81.1673 -77.834,0 -144.334,-27.0011 -199.5,-81.1673 -55.1659,-54.1662 -82.8324,-119.834 -82.8324,-197.166 0,-77.4997 27.6665,-143.501 82.8324,-198.002 55.1659,-54.5005 121.666,-81.6656 199.5,-81.6656 77.3326,0 143.665,27.1651 198.834,81.6656 55.1659,54.5005 82.8324,120.502 82.8324,198.002zm-171.001 447.332c0,-11.8323 -4.50019,-22.5009 -13.6645,-32.3339 -9.16751,-9.83292 -20.6687,-14.6642 -34.3364,-14.6642 -13.6645,0 -25.1657,4.83131 -34.3332,14.6642 -9.16436,9.83292 -13.6645,20.5015 -13.6645,32.3339 0,11.6683 4.50019,22.3338 13.6645,31.8324 9.16751,9.50179 20.6687,14.1691 34.3332,14.1691 13.6677,0 25.1689,-4.66733 34.3364,-14.1691 9.16436,-9.49864 13.6645,-20.1641 13.6645,-31.8324zm-127.998 0c0,-11.8323 -4.50019,-22.5009 -13.6677,-32.3339 -9.16751,-9.83292 -20.6655,-14.6642 -34.3332,-14.6642 -13.6677,0 -25.1657,4.83131 -34.3332,14.6642 -9.16751,9.83292 -13.6677,20.5015 -13.6677,32.3339 0,11.6683 4.50019,22.3338 13.6677,31.8324 9.16751,9.50179 20.6655,14.1691 34.3332,14.1691 13.6677,0 25.1657,-4.66733 34.3332,-14.1691 9.16751,-9.49864 13.6677,-20.1641 13.6677,-31.8324z"
     id="path440" /></glyph>
   <glyph
   unicode="Å"
   horiz-adv-x="388"
   id="glyph446"><path
     d="M395.833 0l-82.9996 0 -49.8332 186.999 -138.169 0 -49.8332 -186.999 -82.9996 0 189.002 679.165c-19.833,2.5008 -36.4998,10.5015 -50.1675,23.8349 -14.5002,13.9988 -21.8324,30.6656 -21.8324,49.8332 0,21.8324 9.00037,40.0003 26.8308,54.6676 16.6668,13.6645 36.0015,20.4984 58.1681,20.4984 22.1666,0 41.6654,-7.00099 58.6664,-21.167 16.8339,-14.166 25.3329,-32.1667 25.3329,-53.9991 0,-18.8333 -6.99784,-35.1658 -21.167,-49.0006 -13.9988,-13.8317 -30.6656,-22.1666 -50.0003,-24.6675l189.002 -679.165zm-177.835 753.001c0,16.6668 -7.99753,24.9986 -23.9989,24.9986 -17.3322,0 -26.0014,-8.33181 -26.0014,-24.9986 0,-16.0014 8.66924,-24.002 26.0014,-24.002 16.0014,0 23.9989,8.00068 23.9989,24.002zm25.0017 -489l-49.3349 205.167 -49.8332 -205.167 99.1681 0z"
     id="path444" /></glyph>
   <glyph
   unicode="´"
   horiz-adv-x="500"
   id="glyph450"><path
     d="M347 691.001l-69.3319 -90.0006 -74.6678 0 65.8345 90.0006 78.1651 0z"
     id="path448" /></glyph>
   <glyph
   unicode="£"
   horiz-adv-x="504"
   id="glyph454"><path
     d="M451.999 101c0,-27.3322 -10.3312,-51 -30.8327,-71.0001 -20.4984,-20.0001 -45.1658,-30.0002 -74.1663,-30.0002l-263.168 0 0 77.0014c42.1668,0.331128 63.1666,18.1647 63.1666,53.6648l0 180.332 -72.9995 0 0 77.0014 72.9995 0 0 217.166c0,27.0011 10.3343,50.5017 31.167,70.6659 20.8358,20.1673 45.6673,30.1673 74.6678,30.1673 29.0005,0 53.1665,-10.1672 72.8324,-30.6656 19.669,-20.5015 30.0002,-46.3327 30.9999,-77.1686l-82.4982 0c-1.33397,20.5015 -8.66609,30.8359 -21.9995,30.8359 -15.4999,0 -23.1695,-8.00068 -23.1695,-23.8349l0 -217.166 98.8338 0 0 -77.0014 -98.8338 0 0 -180.165c0,-17.4993 -4.1659,-35.5001 -12.4977,-53.668l130.499 0c14.6674,0 22.3338,11.5012 22.9992,34.6675 -0.167141,5.1656 -0.167141,14.3331 0,27.3322l81.9999 0 0 -38.1649z"
     id="path452" /></glyph>
   <glyph
   unicode=""
   horiz-adv-x="500"
   id="glyph458"><path
     d="M61.9998 0l0 840.999 375.001 0 0 -840.999 -375.001 0zm62.9995 62.9995l249.002 0 0 715 -249.002 0 0 -715z"
     id="path456" /></glyph>
   <glyph
   unicode=""
   horiz-adv-x="500"
   id="glyph462"><path
     d="M61.9998 0l0 840.999 375.001 0 0 -840.999 -375.001 0zm62.9995 62.9995l249.002 0 0 715 -249.002 0 0 -715z"
     id="path460" /></glyph>
   <glyph
   unicode="p"
   horiz-adv-x="300"
   id="glyph466"><path
     d="M291.002 382.834c0,-47.8338 -17.1682,-89.5023 -51.5014,-125.166 -34.3332,-35.6672 -76.5,-55.1691 -126.5,-58.3353l0 -199.333 -78.0011 0 0 567.001 65.002 0c52.6651,0 97.8341,-18.0007 134.999,-54.1694 37.3323,-36.1655 56.0016,-79.4991 56.0016,-129.998zm-78.0011 0c0,29.0005 -9.50179,53.8319 -28.4991,74.6646 -19.0004,20.8358 -42.8353,33.0024 -71.5016,36.6669l0 -222.165c28.3351,3.16621 51.9997,15.3328 71.1673,36.1655 19.1676,20.8327 28.8334,45.6673 28.8334,74.6678z"
     id="path464" /></glyph>
   <glyph
   unicode="_"
   horiz-adv-x="500"
   id="glyph470"><path
     d="M500 -236l-500 0 0 83.9993 500 0 0 -83.9993z"
     id="path468" /></glyph>
   <glyph
   unicode="N"
   horiz-adv-x="416"
   id="glyph474"><path
     d="M376 0l-80.1676 0 -173.833 470.167 0 -470.167 -81.9999 0 0 700.001 80.1676 0 173.833 -471.003 0 471.003 81.9999 0 0 -700.001z"
     id="path472" /></glyph>
   <glyph
   unicode="="
   horiz-adv-x="833"
   id="glyph478"><path
     d="M708.998 358l-584.999 0 0 81.9999 584.999 0 0 -81.9999zm0 -201.001l-584.999 0 0 81.0002 584.999 0 0 -81.0002z"
     id="path476" /></glyph>
   <glyph
   unicode=","
   horiz-adv-x="165"
   id="glyph482"><path
     d="M132 28.0008c0,-36.4998 -26.0014,-65.5003 -77.834,-87.0015l-20.1673 26.834c16.3356,8.49895 26.834,16.0014 31.6684,22.5009 -19.833,7.16498 -29.6659,20.3313 -29.6659,39.666 0,10.6655 4.49703,20.3344 13.6645,29.0005 9.16751,8.66609 20.6687,12.9991 34.3332,12.9991 13.6677,0 25.1689,-4.33305 34.3332,-13.1663 9.16751,-8.83323 13.6677,-19.1676 13.6677,-30.8327z"
     id="path480" /></glyph>
   <glyph
   unicode="õ"
   horiz-adv-x="638"
   id="glyph486"><path
     d="M618.001 282.001c0,-79.3351 -29.3348,-147.169 -88.1683,-203.502 -58.6664,-56.3327 -129.332,-84.5007 -212.001,-84.5007 -82.331,0 -152.666,28.1679 -210.667,84.5007 -58.165,56.3327 -87.1655,124.167 -87.1655,203.502 0,79.1648 29.0005,147.333 87.1655,204.833 58.001,57.4996 128.336,86.1658 210.667,86.1658 82.6684,0 153.334,-28.6662 212.001,-86.1658 58.8335,-57.4996 88.1683,-125.668 88.1683,-204.833zm-80.0005 0.331128c0,60.1675 -21.6684,111.502 -65.002,154 -43.1665,42.5011 -94.999,63.668 -155.167,63.668 -60.3315,0 -111.666,-21.167 -154.167,-63.668 -42.4979,-42.4979 -63.6649,-93.8322 -63.6649,-154 0,-60.4986 21.167,-111.666 63.6649,-153.167 42.5011,-41.4982 93.8353,-62.1637 154.167,-62.1637 60.5018,0 112.334,20.8327 155.501,62.498 43.1665,41.6685 64.6677,92.5014 64.6677,152.833zm-112 379.835c0,-16.3356 -7.16813,-30.5016 -21.5012,-42.8353 -14.166,-12.1666 -31.4981,-18.3319 -51.6654,-18.3319 -24.3332,0 -47.4995,12.1666 -69.6662,36.3326 -7.50241,7.83354 -12.8351,11.6683 -16.0014,11.6683 -9.83292,0 -14.5002,-9.00037 -14.166,-27.0011 0.167141,-2.83193 0.167141,-9.83292 0,-20.9998l-59.0007 0 0 33.8318c0,16.3356 7.16813,30.6688 21.5012,43.3336 14.166,12.5009 31.4981,18.8333 51.6654,18.8333 24.6675,0 47.4995,-12.1666 68.6665,-36.6669 7.16813,-8.16467 12.8351,-12.3306 17.0011,-12.3306 9.83292,0 14.5002,9.3315 14.166,27.9977 0.167141,3.16621 0.167141,10.1672 0,20.9998l59.0007 0 0 -34.8315z"
     id="path484" /></glyph>
   <glyph
   unicode="ä"
   horiz-adv-x="313"
   id="glyph490"><path
     d="M326.334 0l-79.0008 0 -40.1674 149.001 -101 0 -40.0003 -149.001 -79.1648 0 168.998 609.001 170.335 -609.001zm-138.169 221.001l-32.1667 127.166 -30.8327 -127.166 62.9995 0zm83.8353 425.998c0,-11.8323 -4.50019,-22.4978 -13.6677,-32.3307 -9.16751,-9.83608 -20.6655,-14.6674 -34.3332,-14.6674 -13.6677,0 -25.1657,4.83131 -34.3332,14.6674 -9.16751,9.83292 -13.6677,20.4984 -13.6677,32.3307 0,11.6683 4.50019,22.3338 13.6677,31.8356 9.16751,9.49864 20.6655,14.166 34.3332,14.166 13.6677,0 25.1657,-4.66733 34.3332,-14.166 9.16751,-9.50179 13.6677,-20.1673 13.6677,-31.8356zm-128.001 0c0,-11.8323 -4.50019,-22.4978 -13.6677,-32.3307 -9.16436,-9.83608 -20.6655,-14.6674 -34.3332,-14.6674 -13.6645,0 -25.1657,4.83131 -34.3332,14.6674 -9.16436,9.83292 -13.6645,20.4984 -13.6645,32.3307 0,11.6683 4.50019,22.3338 13.6645,31.8356 9.16751,9.49864 20.6687,14.166 34.3332,14.166 13.6677,0 25.1689,-4.66733 34.3332,-14.166 9.16751,-9.50179 13.6677,-20.1673 13.6677,-31.8356z"
     id="path488" /></glyph>
   <glyph
   unicode="Ó"
   horiz-adv-x="782"
   id="glyph494"><path
     d="M756.999 349.999c0,-97.667 -35.6672,-181.666 -107.166,-251.834 -71.5016,-70.1644 -157.667,-105.166 -258.501,-105.166 -101.335,0 -187.668,35.0018 -259.166,105.166 -71.5016,70.1676 -107.169,154.167 -107.169,251.834 0,97.667 35.6672,181.502 107.169,251.336 71.4984,69.8333 157.831,104.665 259.166,104.665 100.833,0 186.999,-34.8315 258.501,-104.665 71.4984,-69.8333 107.166,-153.669 107.166,-251.336zm-83.9993 -0.331128c0,77.3326 -27.4994,143 -82.5013,197.166 -54.9988,54.1662 -121.499,81.1673 -199.166,81.1673 -77.834,0 -144.334,-27.0011 -199.5,-81.1673 -55.1659,-54.1662 -82.8324,-119.834 -82.8324,-197.166 0,-77.4997 27.6665,-143.501 82.8324,-198.002 55.1659,-54.5005 121.666,-81.6656 199.5,-81.6656 77.3326,0 143.665,27.1651 198.834,81.6656 55.1659,54.5005 82.8324,120.502 82.8324,198.002zm-175.999 491.331l-69.335 -89.9974 -74.6646 0 65.8314 89.9974 78.1683 0z"
     id="path492" /></glyph>
   <glyph
   unicode="Â"
   horiz-adv-x="388"
   id="glyph498"><path
     d="M395.833 0l-82.9996 0 -49.8332 186.999 -138.169 0 -49.8332 -186.999 -82.9996 0 201.666 726 202.168 -726zm-152.833 264l-49.3349 205.167 -49.8332 -205.167 99.1681 0zm51.9997 487.001l-72.167 0 -26.834 33.8318 -26.834 -33.8318 -74.1663 0 65.8345 89.9974 68.3322 0 65.8345 -89.9974z"
     id="path496" /></glyph>
   <glyph
   unicode="±"
   horiz-adv-x="833"
   id="glyph502"><path
     d="M707.999 345.001l-250.998 0 0 -163 -81.9999 0 0 163 -251.001 0 0 81.0002 251.001 0 0 163 81.9999 0 0 -163 250.998 0 0 -81.0002zm0 -338l-583.999 0 0 81.9999 583.999 0 0 -81.9999z"
     id="path500" /></glyph>
   <glyph
   unicode=""
   horiz-adv-x="500"
   id="glyph506"><path
     d="M61.9998 0l0 840.999 375.001 0 0 -840.999 -375.001 0zm62.9995 62.9995l249.002 0 0 715 -249.002 0 0 -715z"
     id="path504" /></glyph>
   <glyph
   unicode="~"
   horiz-adv-x="833"
   id="glyph510"><path
     d="M746.999 293.001c-66.6671,-46.0016 -128.667,-69.0008 -185.999,-69.0008 -29.3348,0 -60.3347,5.66702 -93.1668,17.165 -6.49957,2.16968 -18.8333,6.50272 -36.6669,12.668 -68.6665,24.166 -120.666,36.1655 -156.166,36.1655 -26.1654,0 -54.5005,-6.49957 -85.5004,-19.3316 -30.8327,-12.8351 -64.9988,-32.3339 -102.498,-58.6664l0 91.1674c35.5001,23.8317 68.4993,41.3311 99.1649,52.8322 30.5016,11.334 60.5018,17.0011 89.8334,17.0011 38.332,0 85.9987,-9.66894 143,-28.8334 3.83478,-1.66825 10.8326,-4.3362 20.9998,-8.33496 52.334,-18.499 92.9996,-27.8337 122,-27.8337 53.668,0 115.333,25.0017 185,75.002l0 -90.0006z"
     id="path508" /></glyph>
   <glyph
   unicode="m"
   horiz-adv-x="577"
   id="glyph514"><path
     d="M584.832 -0.999691l-79.1648 0 -91.8328 363.834 -126.002 -378.836 -125.832 378.836 -91.3345 -363.834 -78.6665 0 168.002 583 127.831 -394.001 128.001 394.001 168.998 -583z"
     id="path512" /></glyph>
   <glyph
   unicode="\"
   horiz-adv-x="396"
   id="glyph518"><path
     d="M411.999 0l-82.9996 0 -345.001 700.001 83.0027 0 344.997 -700.001z"
     id="path516" /></glyph>
   <glyph
   unicode="K"
   horiz-adv-x="310"
   id="glyph522"><path
     d="M316.833 700.001l-135.665 -266 132.833 -434.001 -87.0015 0 -98.1652 332.001 -6.83385 -14.1691 0 -317.832 -81.9999 0 0 700.001 81.9999 0 0 -208.834 106.998 208.834 87.834 0z"
     id="path520" /></glyph>
   <glyph
   unicode=":"
   horiz-adv-x="165"
   id="glyph526"><path
     d="M131.001 318.832c0,-11.8323 -4.50019,-22.4978 -13.6677,-32.1667 -9.16751,-9.83292 -20.6655,-14.6642 -34.3332,-14.6642 -13.6677,0 -25.1657,4.83131 -34.3332,14.6642 -9.16751,9.66894 -13.6677,20.3344 -13.6677,32.1667 0,11.6683 4.50019,22.1666 13.6677,31.8356 9.16751,9.49864 20.6655,14.3331 34.3332,14.3331 13.6677,0 25.1657,-4.83447 34.3332,-14.3331 9.16751,-9.66894 13.6677,-20.1673 13.6677,-31.8356zm0 -278.832c0,-11.6683 -4.50019,-22.3338 -13.6677,-31.8324 -9.16751,-9.50179 -20.6655,-14.1691 -34.3332,-14.1691 -13.6677,0 -25.1657,4.66733 -34.3332,14.1691 -9.16751,9.49864 -13.6677,20.1641 -13.6677,31.8324 0,11.8323 4.50019,22.5009 13.6677,32.3339 9.16751,9.83292 20.6655,14.6674 34.3332,14.6674 13.6677,0 25.1657,-4.83447 34.3332,-14.6674 9.16751,-9.83292 13.6677,-20.5015 13.6677,-32.3339z"
     id="path524" /></glyph>
   <glyph
   unicode=")"
   horiz-adv-x="231"
   id="glyph530"><path
     d="M206.999 349.999c0,-163.665 -43.6647,-301.333 -131.001,-412.999l-84.999 0c43.6679,55.3331 77.4997,121.666 101.167,199.166 21.8324,71.0001 32.8321,142.167 32.8321,213.833 0,71.6687 -10.9998,142.833 -32.8321,213.833 -23.6678,77.5029 -57.4996,143.836 -101.167,199.169l84.999 0c87.3358,-111.669 131.001,-249.333 131.001,-413.002z"
     id="path528" /></glyph>
   <glyph
   unicode="ò"
   horiz-adv-x="638"
   id="glyph534"><path
     d="M618.001 282.001c0,-79.3351 -29.3348,-147.169 -88.1683,-203.502 -58.6664,-56.3327 -129.332,-84.5007 -212.001,-84.5007 -82.331,0 -152.666,28.1679 -210.667,84.5007 -58.165,56.3327 -87.1655,124.167 -87.1655,203.502 0,79.1648 29.0005,147.333 87.1655,204.833 58.001,57.4996 128.336,86.1658 210.667,86.1658 82.6684,0 153.334,-28.6662 212.001,-86.1658 58.8335,-57.4996 88.1683,-125.668 88.1683,-204.833zm-80.0005 0.331128c0,60.1675 -21.6684,111.502 -65.002,154 -43.1665,42.5011 -94.999,63.668 -155.167,63.668 -60.3315,0 -111.666,-21.167 -154.167,-63.668 -42.4979,-42.4979 -63.6649,-93.8322 -63.6649,-154 0,-60.4986 21.167,-111.666 63.6649,-153.167 42.5011,-41.4982 93.8353,-62.1637 154.167,-62.1637 60.5018,0 112.334,20.8327 155.501,62.498 43.1665,41.6685 64.6677,92.5014 64.6677,152.833zm-190.001 318.668l-71.8327 0 -73.1667 90.0006 79.1648 0 65.8345 -90.0006z"
     id="path532" /></glyph>
   <glyph
   unicode="á"
   horiz-adv-x="313"
   id="glyph538"><path
     d="M326.334 0l-79.0008 0 -40.1674 149.001 -101 0 -40.0003 -149.001 -79.1648 0 168.998 609.001 170.335 -609.001zm-138.169 221.001l-32.1667 127.166 -30.8327 -127.166 62.9995 0zm63.8352 470l-69.335 -90.0006 -74.6646 0 65.8314 90.0006 78.1683 0z"
     id="path536" /></glyph>
   <glyph
   unicode="Ð"
   horiz-adv-x="490"
   id="glyph542"><path
     d="M466.001 351.998c0,-94.6647 -35.8343,-176.999 -107.5,-246.999 -71.6687,-70.0004 -156.835,-104.999 -255.501,-104.999l-61.9998 0 0 319.999 -60.0004 0 0 77.0014 60.0004 0 0 303.001 61.9998 0c99.0009,0 184.334,-34.5004 255.833,-103.501 71.5016,-69.0008 107.169,-150.499 107.169,-244.502zm-81.9999 0c0,73.0027 -25.336,135.334 -75.8346,187.002 -50.4986,51.8326 -112.167,79.8334 -185.167,83.9993l0 -226 112.833 0 0 -77.0014 -112.833 0 0 -242.833c72.9995,4.16906 134.668,32.8353 185.167,86.0018 50.4986,52.9994 75.8346,115.999 75.8346,188.831z"
     id="path540" /></glyph>
   <glyph
   unicode="¿"
   horiz-adv-x="317"
   id="glyph546"><path
     d="M26.0014 220.5c0,47.4995 14.6642,91.1674 43.8319,130.499 29.3348,39.502 67.6668,67.0014 115.166,82.6684l0 143.334 81.9999 0 0 -208.002c-45.1658,-0.334282 -82.9996,-14.6674 -113.498,-42.9993 -30.3345,-28.4991 -45.5001,-63.5009 -45.5001,-105.333 0,-42.1668 15.1657,-77.4997 45.5001,-106.166 30.4985,-28.8334 68.3322,-43.3336 113.498,-43.6679l0 -76.8343c-67.6668,0 -124.999,22.5009 -172,67.5028 -45.9984,43.999 -68.9976,96.9984 -68.9976,158.998zm151.997 437.833c0,11.9994 4.66733,22.8352 13.8348,32.8353 9.33465,9.83292 20.8327,14.8314 34.5004,14.8314 13.5006,0 24.9986,-4.99845 33.999,-14.8314 9.16751,-10.0001 13.6677,-20.8358 13.6677,-32.8353 0,-12.1666 -4.50019,-22.9992 -13.6677,-32.665 -9.00037,-9.83292 -20.4984,-14.6674 -33.999,-14.6674 -13.6677,0 -25.1657,4.83447 -34.5004,14.6674 -9.16751,9.66578 -13.8348,20.4984 -13.8348,32.665z"
     id="path544" /></glyph>
   <glyph
   unicode="®"
   horiz-adv-x="833"
   id="glyph550"><path
     d="M777.999 357c0,-102 -35.3329,-187.333 -105.999,-256 -72.6684,-70.6659 -158.002,-105.999 -256,-105.999 -99.0009,0 -184.334,36.3326 -256,108.998 -70.0004,71.0001 -105.002,155.334 -105.002,253.001 0,48.1681 9.33465,94.6679 27.8337,139.165 18.335,43.6679 45.333,83.501 81.1673,119.168 68.6665,68.4993 152.666,102.665 252.001,102.665 48.8335,0 95.9987,-9.3315 141.165,-27.8337 91.5017,-37.8306 156.169,-103.164 194,-195.832 17.8336,-44.3333 26.834,-90.1677 26.834,-137.333zm-52.9994 -4.83447c0,88.1683 -29.3316,161.833 -87.834,221.001 -61.1672,61.1672 -134.498,91.8328 -220.165,91.8328 -85.3332,0 -156.835,-29.3316 -214.833,-87.834 -62.1669,-62.8323 -93.1668,-136.166 -93.1668,-220.165 0,-40.9999 7.6664,-79.8334 22.9992,-116.667 23.3335,-56.3327 60.8329,-102.331 112.498,-137.831 51.5014,-35.6672 107.5,-53.5008 167.667,-53.5008 86.8344,0 161.001,30.1673 222.502,90.3317 60.1644,58.1681 90.3317,129.168 90.3317,212.833zm-129.001 -190.998l-97.1655 0 -80.0005 168.831 -62.9995 0 0 -168.831 -86.9983 0 0 404.831 155.832 0c114.167,0 171.332,-36.6637 171.332,-109.998 0,-29.5019 -7.6664,-54.0022 -22.9992,-73.1667 -16.1653,-19.833 -38.6663,-32.6681 -67.3325,-38.5023l90.3317 -183.164zm-89.332 284.666c0,21.8324 -7.83354,38.1649 -23.6678,49.0006 -15.8311,10.9998 -40.4985,16.3325 -73.9992,16.3325l-53.1665 0 0 -127.333 57.1653 0c62.5012,0 93.6682,20.6655 93.6682,61.9998z"
     id="path548" /></glyph>
   <glyph
   unicode=""
   horiz-adv-x="500"
   id="glyph554"><path
     d="M61.9998 0l0 840.999 375.001 0 0 -840.999 -375.001 0zm62.9995 62.9995l249.002 0 0 715 -249.002 0 0 -715z"
     id="path552" /></glyph>
   <glyph
   unicode=""
   horiz-adv-x="500"
   id="glyph558"><path
     d="M61.9998 0l0 840.999 375.001 0 0 -840.999 -375.001 0zm62.9995 62.9995l249.002 0 0 715 -249.002 0 0 -715z"
     id="path556" /></glyph>
   <glyph
   unicode="{"
   horiz-adv-x="500"
   id="glyph562"><path
     d="M427 -202.001l-30.8327 0c-61.5015,0 -105.835,8.00068 -132.836,24.002 -22.4978,13.3334 -37.3323,34.9986 -44.4973,64.8317 -3.83478,17.0011 -5.83416,43.999 -5.83416,81.1673l0 121c0,44.3333 -7.6664,75.9986 -22.9992,95.3333 -17.3353,21.8324 -47.3355,32.665 -90.0006,32.665 2.99907,0 -0.501422,0 -10.1672,0 0,0 -3.66764,0 -10.8326,0l0 86.0018c0.999691,0 4.50019,-0.334282 10.8326,-0.999691 0,0 3.33335,0 10.1672,0 42.4979,0 72.3341,10.8326 89.4991,32.665 15.6671,19.1676 23.5006,50.6657 23.5006,94.6679l0 120.499c0,38.332 1.99938,65.6674 5.83416,81.8327 6.8307,30.0002 21.6652,51.6686 44.4973,65.002 15.336,9.3315 32.8353,15.6639 52.8354,18.9973 18.8333,3.5005 48.4992,5.33589 88.8337,5.33589l21.9995 0 0 -87.0015c-7.83354,0 -11.6683,0 -11.6683,0 -10.8326,0 -14.6642,0 -11.3309,0 -37.8337,0 -63.0026,-8.16782 -75.3332,-24.3332 -10.5015,-13.6677 -15.6671,-40.4985 -15.6671,-80.4988l0 -117.5c0,-51 -7.00099,-87.0015 -20.9998,-107.834 -14.002,-20.8327 -40.0003,-35.8343 -78.0011,-45.333 40.3345,-9.50179 67.6668,-27.1683 81.9999,-53.1665 11.334,-20.8327 17.0011,-54.0022 17.0011,-99.4992l0 -117.002c0,-39.666 5.33274,-66.4999 16.1653,-80.4988 12.668,-16.8339 38.0009,-25.3329 75.8346,-25.3329 7.49926,0 11.1669,0 11.1669,0 10.1641,0 13.8317,0 10.8326,0l0 -85.0021z"
     id="path560" /></glyph>
   <glyph
   unicode="j"
   horiz-adv-x="205"
   id="glyph566"><path
     d="M175 149.834c0,-44.3333 -17.165,-81.3345 -51.3343,-111.168 -34.3332,-29.833 -76.8311,-44.6676 -127.664,-44.6676l0 71.0001c30.0002,0.334282 54.1662,8.5021 72.9995,24.6675 18.6662,16.1685 28.0008,37.1683 28.0008,63.1666l0 414.168 77.998 0 0 -417.168z"
     id="path564" /></glyph>
   <glyph
   unicode="Y"
   horiz-adv-x="356"
   id="glyph570"><path
     d="M365.001 700.001l-146.002 -394.001 0 -306 -81.9999 0 0 306 -145.999 394.001 81.9999 0 103.501 -281.001 105.501 281.001 82.9996 0z"
     id="path568" /></glyph>
   <glyph
   unicode="H"
   horiz-adv-x="416"
   id="glyph574"><path
     d="M376 0l-81.9999 0 0 371.999 -172 0 0 -371.999 -81.9999 0 0 700.001 81.9999 0 0 -251.001 172 0 0 251.001 81.9999 0 0 -700.001z"
     id="path572" /></glyph>
   <glyph
   unicode="7"
   horiz-adv-x="504"
   id="glyph578"><path
     d="M459.167 700.001l-249.002 -700.001 -87.998 0 220.834 623 -253.001 0 0 77.0014 369.167 0z"
     id="path576" /></glyph>
   <glyph
   unicode="&amp;"
   horiz-adv-x="316"
   id="glyph582"><path
     d="M276.832 65.9985c-14.3331,0 -29.833,0 -46.8309,0l0 -65.9985 -81.9999 0 0 83.9993c-37.5026,14.6674 -67.5028,36.4998 -90.3348,65.8345 -24.5003,30.9999 -36.6669,64.9988 -36.6669,102 0,66.4999 33.999,118.834 102,157.166 -29.3316,27.6665 -43.999,58.6664 -43.999,92.8325 0,46.4998 22.9992,83.501 69.0008,110.833l0 87.3358 81.9999 0 0 -61.9998c0,0 2.66479,0 7.83039,0l39.0006 0 0 -72.003 -38.8334 0c-19.3316,0 -36.8309,-5.831 -52.3308,-17.6665 -16.5028,-12.3306 -24.6675,-27.8305 -24.6675,-46.3327 0,-18.1647 8.16467,-33.6647 24.6675,-46.3327 15.4999,-11.8323 32.9993,-17.6665 52.3308,-17.6665l38.8334 0 0 -71.9998 -39.0006 0c-34.6644,0 -65.8314,-10.3343 -93.8322,-31.167 -30.0002,-22.5009 -44.9987,-50.1675 -44.9987,-82.9996 0,-32.9993 14.9985,-60.5018 44.9987,-82.5013 27.6665,-20.1673 58.8335,-30.3313 93.8322,-30.3313l39.0006 0 0 -73.0027z"
     id="path580" /></glyph>
   <glyph
   unicode="ï"
   horiz-adv-x="148"
   id="glyph586"><path
     d="M113 0l-78.0011 0 0 567.001 78.0011 0 0 -567.001zm73.9992 646.999c0,-11.8323 -4.50019,-22.4978 -13.6645,-32.3307 -9.16751,-9.83608 -20.6687,-14.6674 -34.3332,-14.6674 -13.6677,0 -25.1689,4.83131 -34.3332,14.6674 -9.16751,9.83292 -13.6677,20.4984 -13.6677,32.3307 0,11.6683 4.50019,22.3338 13.6677,31.8356 9.16436,9.49864 20.6655,14.166 34.3332,14.166 13.6645,0 25.1657,-4.66733 34.3332,-14.166 9.16436,-9.50179 13.6645,-20.1673 13.6645,-31.8356zm-127.998 0c0,-11.8323 -4.50019,-22.4978 -13.6677,-32.3307 -9.16751,-9.83608 -20.6655,-14.6674 -34.3332,-14.6674 -13.6677,0 -25.1657,4.83131 -34.3332,14.6674 -9.16751,9.83292 -13.6677,20.4984 -13.6677,32.3307 0,11.6683 4.50019,22.3338 13.6677,31.8356 9.16751,9.49864 20.6655,14.166 34.3332,14.166 13.6677,0 25.1657,-4.66733 34.3332,-14.166 9.16751,-9.50179 13.6677,-20.1673 13.6677,-31.8356z"
     id="path584" /></glyph>
   <glyph
   unicode="Þ"
   horiz-adv-x="359"
   id="glyph590"><path
     d="M345.001 353.001c0,-59.8332 -21.6684,-111.502 -64.8348,-155.003 -43.3336,-43.3336 -95.9987,-66.3328 -158.166,-68.9976l0 -129.001 -81.9999 0 0 700.001 81.9999 0 0 -122c61.8326,-2.66794 114.501,-25.6671 157.834,-69.335 43.4976,-43.5007 65.166,-95.5004 65.166,-155.665zm-81.9999 0.498269c0,39.666 -13.6677,73.5009 -41.1671,101.502 -27.4994,27.9977 -60.8329,43.3336 -99.8335,45.9984l0 -295c39.0006,2.66794 72.3341,18.0007 99.8335,46.0016 27.4994,27.9977 41.1671,61.8326 41.1671,101.499z"
     id="path588" /></glyph>
   <glyph
   unicode="Í"
   horiz-adv-x="162"
   id="glyph594"><path
     d="M122 0l-81.9999 0 0 700.001 81.9999 0 0 -700.001zm64.9988 840.999l-69.3319 -89.9974 -74.6678 0 65.8345 89.9974 78.1651 0z"
     id="path592" /></glyph>
   <glyph
   unicode="¼"
   horiz-adv-x="444"
   id="glyph598"><path
     d="M128.001 350.166l-66.0017 0 0 289.835 -40.9999 0 0 60.0004 107.002 0 0 -349.835zm289.999 349.835l-345.168 -700.001 -72.8324 0 345.168 700.001 72.8324 0zm7.83354 -613l-41.8325 0 0 -87.0015 -66.0017 0 0 87.0015 -141.168 0 207.169 297.832 0 -237.835 41.8325 0 0 -59.9972zm-107.834 59.9972l0 37.0012 -24.9986 -37.0012 24.9986 0z"
     id="path596" /></glyph>
   <glyph
   unicode="«"
   horiz-adv-x="369"
   id="glyph602"><path
     d="M195 98.0012l-197.999 180.831 197.999 183.167 0 -92.8325 -99.8335 -90.3348 99.8335 -88.9977 0 -91.8328zm150.001 0l-198.002 180.831 198.002 183.167 0 -92.8325 -99.8335 -90.3348 99.8335 -88.9977 0 -91.8328z"
     id="path600" /></glyph>
   <glyph
   unicode=""
   horiz-adv-x="500"
   id="glyph606"><path
     d="M61.9998 0l0 840.999 375.001 0 0 -840.999 -375.001 0zm62.9995 62.9995l249.002 0 0 715 -249.002 0 0 -715z"
     id="path604" /></glyph>
   <glyph
   unicode=""
   horiz-adv-x="500"
   id="glyph610"><path
     d="M61.9998 0l0 840.999 375.001 0 0 -840.999 -375.001 0zm62.9995 62.9995l249.002 0 0 715 -249.002 0 0 -715z"
     id="path608" /></glyph>
   <glyph
   unicode="x"
   horiz-adv-x="288"
   id="glyph614"><path
     d="M302.001 0l-78.6665 0 -79.168 212.001 -80.0005 -212.001 -78.1651 0 118.165 317.999 -91.8328 249.002 77.6668 0 54.1662 -144.167 54.1662 144.167 77.6668 0 -92.6654 -249.002 118.667 -317.999z"
     id="path612" /></glyph>
   <glyph
   unicode="g"
   horiz-adv-x="383"
   id="glyph618"><path
     d="M353.001 -6.0013l-34.1692 0c-82.331,0 -152.666,28.3351 -210.667,85.0021 -58.165,56.4999 -87.1655,124.665 -87.1655,204 0,79.1648 29.0005,147.166 87.1655,204.331 58.001,57.1684 128.336,85.6675 210.667,85.6675l34.1692 0 0 -73.9992c-15.0017,1.33397 -26.3357,1.99938 -34.1692,1.99938 -60.1644,0 -111.666,-21.167 -154.167,-63.6649 -42.4979,-42.5011 -63.6649,-93.8353 -63.6649,-154.167 0,-51.6686 16.3325,-97.4998 49.1678,-137.169 32.665,-39.666 74.3335,-64.8317 124.832,-75.166l0 304.168 78.0011 0 0 -381.002z"
     id="path616" /></glyph>
   <glyph
   unicode="V"
   horiz-adv-x="388"
   id="glyph622"><path
     d="M395.833 700.001l-202.168 -737.002 -201.666 737.002 82.9996 0 118.667 -468 119.168 468 82.9996 0z"
     id="path620" /></glyph>
   <glyph
   unicode="E"
   horiz-adv-x="370"
   id="glyph626"><path
     d="M350.166 0l-61.9998 0c-75.166,0 -137.5,20.6655 -186.999,61.9998 -50.8329,42.6682 -76.1689,97.3327 -76.1689,164 0,40.3345 12.8351,78.0011 38.5023,112.833 24.8314,33.835 57.9978,60.5018 99.6663,80.0005 -19.3347,13.3334 -35.0018,30.8327 -47.0012,52.6683 -12.1666,21.8324 -18.1647,43.3336 -18.1647,64.5006 0,48.4992 17.6665,87.998 52.9994,118.333 35.3329,30.4985 81.1673,45.6673 137.166,45.6673l51.8326 0 0 -77.0014 -51.8326 0c-32.3339,0 -57.6667,-7.83354 -76.3329,-23.5006 -18.499,-15.6671 -27.8337,-36.834 -27.8337,-63.4977 0,-25.1689 11.1669,-46.3358 33.3335,-63.5009 20.8327,-15.6671 44.3333,-23.5006 70.833,-23.5006l31.8324 0 0 -77.0014 -31.8324 0c-45.8344,0 -86.6672,-12.9991 -122.498,-38.9974 -39.1677,-28.3351 -58.6696,-64.0023 -58.6696,-107.002 0,-44.3333 17.8336,-80.6659 53.668,-109.001 34.1661,-26.6637 76.6672,-39.9971 127.5,-39.9971l61.9998 0 0 -77.0014z"
     id="path624" /></glyph>
   <glyph
   unicode="4"
   horiz-adv-x="504"
   id="glyph630"><path
     d="M451.334 186.999l-84.3335 0 0 -186.999 -81.9999 0 0 186.999 -258.999 0 340.999 557.001 0 -480 84.3335 0 0 -77.0014zm-166.333 77.0014l0 200.834 -117.834 -200.834 117.834 0z"
     id="path628" /></glyph>
   <glyph
   unicode="#"
   horiz-adv-x="768"
   id="glyph634"><path
     d="M735 500l-28.8334 -83.9993 -143.334 0 -43.999 -123 150.833 0 -29.6659 -84.0024 -150.001 0 -76.1657 -211.998 -93.1668 0 76.1657 211.998 -123.167 0 -76.9983 -211.998 -92.8357 0 76.1689 211.998 -146.002 0 29.833 84.0024 145.002 0 43.999 123 -153.833 0 29.6659 83.9993 154.334 0 75.6643 213 93.3339 0 -75.166 -213 122 0 76.1657 213 92.8357 0 -75.1692 -213 142.335 0zm-264 -83.9993l-124.999 0 -44.5004 -123 124.999 0 44.5004 123z"
     id="path632" /></glyph>
   <glyph
   unicode="ý"
   horiz-adv-x="297"
   id="glyph638"><path
     d="M306.833 567.001l-118.834 -318.835 0 -248.166 -77.998 0 0 248.166 -119.001 318.835 77.6668 0 80.0005 -212.001 79.1648 212.001 79.0008 0zm-49.8332 124l-69.3319 -90.0006 -74.6678 0 65.8345 90.0006 78.1651 0z"
     id="path636" /></glyph>
   <glyph
   unicode="ì"
   horiz-adv-x="148"
   id="glyph642"><path
     d="M113 0l-78.0011 0 0 567.001 78.0011 0 0 -567.001zm-10.0001 601l-71.8327 0 -73.1667 90.0006 79.1648 0 65.8345 -90.0006z"
     id="path640" /></glyph>
   <glyph
   unicode="Û"
   horiz-adv-x="469"
   id="glyph646"><path
     d="M434.001 184.832c0,-52.334 -19.5019,-97.4998 -58.3353,-135.166 -39.0006,-37.8337 -85.8315,-56.667 -140.833,-56.667 -54.8316,0 -101.666,18.8333 -141.001,56.667 -39.1645,37.6666 -58.8335,82.8324 -58.8335,135.166l0 515.169 81.9999 0 0 -514.835c0,-32.1667 11.6683,-59.499 35.0018,-81.6656 23.1663,-22.3338 50.8329,-33.5007 82.8324,-33.5007 32.1667,0 59.8332,11.1669 82.6684,33.5007 22.9992,22.1666 34.4972,49.4989 34.4972,81.6656l0 514.835 82.003 0 0 -515.169zm-99.0009 566.169l-72.167 0 -26.834 33.8318 -26.834 -33.8318 -74.1663 0 65.8345 89.9974 68.3322 0 65.8345 -89.9974z"
     id="path644" /></glyph>
   <glyph
   unicode="Ê"
   horiz-adv-x="370"
   id="glyph650"><path
     d="M350.166 0l-61.9998 0c-75.166,0 -137.5,20.6655 -186.999,61.9998 -50.8329,42.6682 -76.1689,97.3327 -76.1689,164 0,40.3345 12.8351,78.0011 38.5023,112.833 24.8314,33.835 57.9978,60.5018 99.6663,80.0005 -19.3347,13.3334 -35.0018,30.8327 -47.0012,52.6683 -12.1666,21.8324 -18.1647,43.3336 -18.1647,64.5006 0,48.4992 17.6665,87.998 52.9994,118.333 35.3329,30.4985 81.1673,45.6673 137.166,45.6673l51.8326 0 0 -77.0014 -51.8326 0c-32.3339,0 -57.6667,-7.83354 -76.3329,-23.5006 -18.499,-15.6671 -27.8337,-36.834 -27.8337,-63.4977 0,-25.1689 11.1669,-46.3358 33.3335,-63.5009 20.8327,-15.6671 44.3333,-23.5006 70.833,-23.5006l31.8324 0 0 -77.0014 -31.8324 0c-45.8344,0 -86.6672,-12.9991 -122.498,-38.9974 -39.1677,-28.3351 -58.6696,-64.0023 -58.6696,-107.002 0,-44.3333 17.8336,-80.6659 53.668,-109.001 34.1661,-26.6637 76.6672,-39.9971 127.5,-39.9971l61.9998 0 0 -77.0014zm-10.1672 751.001l-72.167 0 -26.8308 33.8318 -26.834 -33.8318 -74.1663 0 65.8314 89.9974 68.3353 0 65.8314 -89.9974z"
     id="path648" /></glyph>
   <glyph
   unicode="¹"
   horiz-adv-x="152"
   id="glyph654"><path
     d="M128.001 349.999l-66.0017 0 0 290.002 -40.9999 0 0 60.0004 107.002 0 0 -350.002z"
     id="path652" /></glyph>
   <glyph
   unicode="¨"
   horiz-adv-x="500"
   id="glyph658"><path
     d="M361.998 646.999c0,-11.8323 -4.49703,-22.4978 -13.6645,-32.3307 -9.16751,-9.83608 -20.6687,-14.6674 -34.3332,-14.6674 -13.6677,0 -25.1689,4.83131 -34.3332,14.6674 -9.16751,9.83292 -13.6677,20.4984 -13.6677,32.3307 0,11.6683 4.50019,22.3338 13.6677,31.8356 9.16436,9.49864 20.6655,14.166 34.3332,14.166 13.6645,0 25.1657,-4.66733 34.3332,-14.166 9.16751,-9.50179 13.6645,-20.1673 13.6645,-31.8356zm-127.998 0c0,-11.8323 -4.50019,-22.4978 -13.6677,-32.3307 -9.16436,-9.83608 -20.6655,-14.6674 -34.3332,-14.6674 -13.6645,0 -25.1657,4.83131 -34.3332,14.6674 -9.16751,9.83292 -13.6645,20.4984 -13.6645,32.3307 0,11.6683 4.49703,22.3338 13.6645,31.8356 9.16751,9.49864 20.6687,14.166 34.3332,14.166 13.6677,0 25.1689,-4.66733 34.3332,-14.166 9.16751,-9.50179 13.6677,-20.1673 13.6677,-31.8356z"
     id="path656" /></glyph>
   <glyph
   unicode=""
   horiz-adv-x="500"
   id="glyph662"><path
     d="M61.9998 0l0 840.999 375.001 0 0 -840.999 -375.001 0zm62.9995 62.9995l249.002 0 0 715 -249.002 0 0 -715z"
     id="path660" /></glyph>
   <glyph
   unicode=""
   horiz-adv-x="500"
   id="glyph666"><path
     d="M61.9998 0l0 840.999 375.001 0 0 -840.999 -375.001 0zm62.9995 62.9995l249.002 0 0 715 -249.002 0 0 -715z"
     id="path664" /></glyph>
   <glyph
   unicode="u"
   horiz-adv-x="396"
   id="glyph670"><path
     d="M364.001 150.833c0,-42.6682 -16.4996,-79.4991 -49.3349,-110.499 -32.9993,-30.8359 -71.8327,-46.3358 -116.333,-46.3358 -44.9987,0 -83.9993,15.4999 -116.999,46.3358 -32.8353,30.9999 -49.3349,67.8308 -49.3349,110.499l0 416.168 78.0011 0 0 -408.669c0,-26.3326 8.33181,-48.3321 25.1657,-65.9985 16.6668,-17.4993 37.6666,-26.3357 63.1666,-26.3357 25.0017,0 45.8344,8.83638 62.5012,26.3357 16.8339,17.6665 25.1657,39.666 25.1657,65.9985l0 408.669 78.0011 0 0 -416.168z"
     id="path668" /></glyph>
   <glyph
   unicode="d"
   horiz-adv-x="407"
   id="glyph674"><path
     d="M387 283.332c0,-76.8311 -27.6665,-143 -82.9996,-198.333 -56.3327,-56.667 -124.334,-84.999 -204,-84.999l-65.002 0 0 567.001 65.002 0c79.6662,0 147.667,-28.3351 204,-85.0021 55.3331,-55.6673 82.9996,-121.833 82.9996,-198.667zm-78.0011 -0.163987c0,55.3331 -18.8333,103.167 -56.4999,143.331 -37.8337,40.1674 -84.1664,62.8355 -139.499,67.6668l0 -422.333c55.3331,4.83447 101.666,27.4994 139.499,67.8339 37.6666,40.3345 56.4999,88.1652 56.4999,143.501z"
     id="path672" /></glyph>
   <glyph
   unicode="S"
   horiz-adv-x="450"
   id="glyph678"><path
     d="M430.999 213.833c0,-64.8317 -25.9983,-118.5 -78.1651,-161.168 -48.8335,-39.8331 -106.333,-59.6661 -172.833,-59.6661 -68.0011,0 -129.667,21.6684 -185,65.002l19.997 95.8316c46.8341,-55.8313 100.335,-83.8321 160.67,-83.8321 44.4973,0 83.3307,12.832 116.166,38.6663 35.5001,28.0008 53.1665,63.5009 53.1665,106.5 0,53.8319 -26.0014,95.9987 -78.0011,126.667 -48.1649,24.166 -96.333,47.9978 -144.498,71.8327 -51.6686,32.9993 -77.5029,78.4994 -77.5029,136.832 0,46.0016 18.8333,84.0024 56.667,114.003 35.0018,27.6665 76.1689,41.4982 123.334,41.4982 37.8337,0 75.6675,-10.6655 113.832,-32.1667l-19.1644 -85.9987c-30.1673,26.834 -60.3347,40.1674 -90.6691,40.1674 -24.9986,0 -46.8309,-6.83385 -65.3331,-20.5015 -21.167,-14.9985 -31.6653,-34.5004 -31.6653,-58.6664 0,-32.8321 25.8343,-61.6655 77.4997,-86.5001 80.6659,-38.332 128.667,-63.668 144,-75.6675 51.6686,-41.3311 77.4997,-98.9978 77.4997,-172.833z"
     id="path676" /></glyph>
   <glyph
   unicode="B"
   horiz-adv-x="359"
   id="glyph682"><path
     d="M345.001 226c0,-61.4983 -22.6681,-114.501 -68.0011,-159.165 -45.5001,-44.5004 -100.168,-66.8342 -164.334,-66.8342l-72.6652 0 0 700.001 72.3341 0c46.3327,0 85.9987,-16.3356 119.165,-48.8335 32.9993,-32.501 49.502,-71.0001 49.502,-115.166 0,-44.0022 -17.0011,-82.6684 -51,-116.169 35.9983,-21.167 64.1663,-48.9975 84.4975,-83.4978 20.3344,-34.5004 30.5016,-71.3344 30.5016,-110.335zm-145.999 310.166c0,22.5009 -7.50241,41.8356 -22.3338,58.3353 -15.0017,16.4996 -33.1664,25.9983 -54.6676,28.4991l0 -172.833c21.5012,2.33366 39.666,11.6652 54.6676,27.8337 14.8314,16.3325 22.3338,35.6672 22.3338,58.165zm63.9991 -310.166c0,39.502 -13.6677,72.9995 -40.9999,100.666 -27.3354,27.6665 -60.6689,42.8353 -100.001,45.333l0 -294.833c39.0006,2.66794 72.3341,18.1679 99.8335,46.667 27.4994,28.5022 41.1671,62.5012 41.1671,102.167z"
     id="path680" /></glyph>
   <glyph
   unicode="1"
   horiz-adv-x="504"
   id="glyph686"><path
     d="M300.998 0l-81.9999 0 0 623 -83.9993 0 0 77.0014 165.999 0 0 -700.001z"
     id="path684" /></glyph>
   <glyph
   unicode=" "
   horiz-adv-x="253"
   id="glyph688" />
   <glyph
   unicode="ú"
   horiz-adv-x="396"
   id="glyph692"><path
     d="M364.001 150.833c0,-42.6682 -16.4996,-79.4991 -49.3349,-110.499 -32.9993,-30.8359 -71.8327,-46.3358 -116.333,-46.3358 -44.9987,0 -83.9993,15.4999 -116.999,46.3358 -32.8353,30.9999 -49.3349,67.8308 -49.3349,110.499l0 416.168 78.0011 0 0 -408.669c0,-26.3326 8.33181,-48.3321 25.1657,-65.9985 16.6668,-17.4993 37.6666,-26.3357 63.1666,-26.3357 25.0017,0 45.8344,8.83638 62.5012,26.3357 16.8339,17.6665 25.1657,39.666 25.1657,65.9985l0 408.669 78.0011 0 0 -416.168zm-61.9998 540.167l-69.335 -90.0006 -74.6678 0 65.8345 90.0006 78.1683 0z"
     id="path690" /></glyph>
   <glyph
   unicode="é"
   horiz-adv-x="291"
   id="glyph696"><path
     d="M280.667 0l-48.8335 0c-62.8323,0 -114.501,16.8339 -154.832,50.3346 -41.3342,34.1661 -62.0029,78.8305 -62.0029,133.832 0,70.0004 36.0015,122.498 107.834,157.667 -33.1664,23.4975 -49.8332,53.4977 -49.8332,90.3317 0,39.1677 16.6668,71.8327 49.8332,98.1684 31.6684,24.5003 67.8339,36.6669 109.001,36.6669l48.8335 0 0 -71.9998 -48.6663 0c-19.5019,0 -37.1683,-5.66702 -52.6683,-17.1682 -16.8339,-12.3337 -25.3329,-27.6665 -25.3329,-45.8344 0,-18.1647 8.49895,-33.3335 25.3329,-45.333 15.1688,-11.1669 32.8353,-16.6668 52.5011,-16.6668l29.3316 0 0 -71.9998 -29.3316 0c-38.6663,0 -71.1673,-10.1672 -97.3327,-30.6656 -27.6665,-21.5012 -41.5014,-49.1678 -41.5014,-82.9996 0,-33.835 13.1663,-61.0001 39.4988,-81.5016 26.3357,-20.4984 59.5021,-30.8327 99.3352,-30.8327l48.8335 0 0 -71.9998zm31.3342 691.001l-69.335 -90.0006 -74.6678 0 65.8345 90.0006 78.1683 0z"
     id="path694" /></glyph>
   <glyph
   unicode="Ø"
   horiz-adv-x="782"
   id="glyph700"><path
     d="M756.999 349.999c0,-97.9981 -35.6672,-182.165 -107.166,-252.499 -71.5016,-70.3347 -157.667,-105.501 -258.668,-105.501 -38.0009,0 -77.6668,7.00099 -119.165,21.167l-20.0001 -40.1674 -82.9996 0 35.1658 69.8333c-55.0019,32.501 -98.4995,75.6675 -130.335,129.503 -32.4978,54.9988 -48.8335,114.167 -48.8335,177.664 0,97.667 35.6672,181.666 107.169,251.834 71.4984,70.1676 157.831,105.166 258.999,105.166 43.3336,0 86.0018,-7.6664 128.001,-22.9992l15.1657 41.9996 82.9996 0 -31.3342 -75.166c52.8354,-32.9993 94.3336,-75.5003 124.668,-128.001 30.8327,-53.6648 46.3327,-111.332 46.3327,-172.833zm-83.9993 0.167141c0,97.0016 -40.6657,173.334 -122.167,229.002l-243.666 -496.001c27.0011,-8.16782 54.9988,-12.1666 83.9993,-12.1666 77.4997,0 143.833,27.1651 199.002,81.4985 55.1659,54.3334 82.8324,120.335 82.8324,197.668zm-189.002 261.667c-32.4978,11.5012 -63.4977,17.1682 -92.8325,17.1682 -77.6668,0 -144.167,-27.1683 -199.333,-81.3345 -55.1659,-54.1662 -82.8324,-120.001 -82.8324,-197.5 0,-49.1678 11.9994,-94.8319 36.1655,-136.832 22.9992,-40.3345 54.8348,-73.0027 95.1662,-98.1684l243.666 496.667z"
     id="path698" /></glyph>
   <glyph
   unicode="Ç"
   horiz-adv-x="423"
   id="glyph704"><path
     d="M424.001 -73.8321c0,-19.1676 -8.83323,-34.1692 -26.3357,-45.169 -14.9985,-9.3315 -32.8321,-13.9988 -53.3337,-13.9988 -24.3332,0 -49.4989,8.66609 -75.166,26.0014l23.8349 32.8321c17.6665,-9.16751 31.9996,-13.8348 42.9993,-13.8348 13.3334,0 20.0001,4.50019 20.0001,13.6677 0,8.83323 -6.66671,13.3334 -20.0001,13.3334 -4.50019,0 -14.166,-1.33397 -28.8334,-3.99876l-29.1676 18.1647 38.0009 47.8338c-83.3339,17.1682 -152.666,58.4993 -207.999,124 -55.3362,65.3331 -83.0027,140.502 -83.0027,225 0,99.0009 36.5029,183.334 109.335,253.001 71.6655,68.6665 157.333,103 256.999,103 5.49988,0 16.3325,-0.665409 32.6681,-1.99938l0 -78.0011c-14.3363,1.33397 -25.1689,2.00254 -32.6681,2.00254 -77.834,0 -144.334,-27.0011 -199.5,-80.8362 -55.1659,-53.8319 -82.8324,-119.499 -82.8324,-196.999 0,-79.4991 28.4991,-145.832 85.5004,-199.333 55.9985,-52.6683 123.832,-79.0008 203.666,-79.0008 9.00037,0 17.6665,0.334282 25.8343,1.16683l0 -80.0005c-22.8352,0 -40.3345,0 -52.8354,0l-14.166 -16.9979c44.6676,0 67.0014,-16.6668 67.0014,-49.8332z"
     id="path702" /></glyph>
   <glyph
   unicode="¶"
   horiz-adv-x="500"
   id="glyph708"><path
     d="M473.333 674l-57.3324 0 0 -674 -62.9995 0 0 674 -81.9999 0 0 -674 -64.0023 0 0 382.667c-52.6651,1.99938 -95.3333,17.3322 -127.831,45.9984 -34.8347,30.5016 -52.1668,71.5016 -52.1668,123 0,51.6686 17.3322,93.0028 51.8326,124.003 34.5004,30.8327 80.8331,46.3327 139.165,46.3327l255.334 0 0 -48.0009z"
     id="path706" /></glyph>
   <glyph
   unicode="¥"
   horiz-adv-x="504"
   id="glyph712"><path
     d="M440 700.001l-123 -331.002 81.0002 0 0 -74.9989 -103.999 0 0 -21.9995 103.999 0 0 -77.0014 -103.999 0 0 -195 -81.9999 0 0 195 -106.002 0 0 77.0014 106.002 0 0 21.9995 -106.002 0 0 74.9989 81.9999 0 -123 331.002 83.0027 0 103.999 -281.001 103.999 281.001 83.9993 0z"
     id="path710" /></glyph>
   <glyph
   unicode=""
   horiz-adv-x="500"
   id="glyph716"><path
     d="M61.9998 0l0 840.999 375.001 0 0 -840.999 -375.001 0zm62.9995 62.9995l249.002 0 0 715 -249.002 0 0 -715z"
     id="path714" /></glyph>
   <glyph
   unicode=""
   horiz-adv-x="500"
   id="glyph720"><path
     d="M61.9998 0l0 840.999 375.001 0 0 -840.999 -375.001 0zm62.9995 62.9995l249.002 0 0 715 -249.002 0 0 -715z"
     id="path718" /></glyph>
   <glyph
   unicode="r"
   horiz-adv-x="288"
   id="glyph724"><path
     d="M305 0l-87.1655 0 -104.835 181.168 0 -181.168 -78.0011 0 0 567.001 39.0006 0c52.8354,0 98.0012,-18.0007 135.668,-54.1694 37.4994,-36.1655 56.3327,-79.4991 56.3327,-129.998 0,-67.0014 -30.8327,-119.335 -92.3342,-156.668l131.335 -226.167zm-117.002 382.834c0,23.9989 -6.8307,45.6641 -20.6655,64.9988 -13.8317,19.1676 -31.9996,32.8321 -54.3334,40.9999l0 -212.001c22.3338,8.16782 40.5017,21.8355 54.3334,40.9999 13.8348,19.3347 20.6655,40.8328 20.6655,65.002z"
     id="path722" /></glyph>
   <glyph
   unicode="a"
   horiz-adv-x="313"
   id="glyph728"><path
     d="M326.334 0l-79.0008 0 -40.1674 149.001 -101 0 -40.0003 -149.001 -79.1648 0 168.998 609.001 170.335 -609.001zm-138.169 221.001l-32.1667 127.166 -30.8327 -127.166 62.9995 0z"
     id="path726" /></glyph>
   <glyph
   unicode="P"
   horiz-adv-x="359"
   id="glyph732"><path
     d="M345.001 473.999c0,-59.8332 -21.6684,-111.499 -64.8348,-154.999 -43.3336,-43.5007 -95.9987,-66.4999 -158.166,-68.9976l0 -250.002 -81.9999 0 0 700.001 72.6652 0c64.1663,0 118.834,-22.3338 164.334,-67.1685 45.333,-44.6676 68.0011,-97.667 68.0011,-158.834zm-81.9999 0.167141c0,39.6691 -13.6677,73.8352 -41.1671,102.167 -27.4994,28.4991 -60.8329,44.1662 -99.8335,46.667l0 -296.833c39.0006,2.66479 72.3341,18.0007 99.8335,46.1655 27.4994,28.1679 41.1671,61.9998 41.1671,101.833z"
     id="path730" /></glyph>
   <glyph
   unicode="?"
   horiz-adv-x="317"
   id="glyph736"><path
     d="M293.001 480c0,-47.8338 -14.6674,-91.4985 -44.1662,-130.833 -29.5019,-39.4988 -68.0011,-66.8342 -115.835,-82.167l0 -143 -81.9999 0 0 208.002c45.5001,0.331128 83.501,14.6642 114.167,42.9993 30.5016,28.3319 45.8344,63.3337 45.8344,104.999 0,41.6654 -15.3328,76.8343 -45.8344,105.333 -30.6656,28.6662 -68.6665,43.1665 -114.167,43.5007l0 77.1654c68.3322,0 125.668,-22.1666 172.168,-66.6671 46.4998,-44.3333 69.8333,-97.4998 69.8333,-159.332zm-152 -438c0,-12.1666 -4.66733,-23.1663 -13.8348,-32.9993 -9.3315,-10.0001 -20.8327,-15.0017 -34.3332,-15.0017 -13.3334,0 -24.6643,5.00161 -33.999,15.0017 -9.16751,9.83292 -13.8348,20.8327 -13.8348,32.9993 0,11.9994 4.66733,22.9992 13.8348,32.501 9.33465,9.66578 20.6655,14.5002 33.999,14.5002 13.5006,0 25.0017,-4.83447 34.3332,-14.5002 9.16751,-9.50179 13.8348,-20.5015 13.8348,-32.501z"
     id="path734" /></glyph>
   <glyph
   unicode="."
   horiz-adv-x="165"
   id="glyph740"><path
     d="M131.001 40.0003c0,-11.6683 -4.50019,-22.3338 -13.6677,-31.8324 -9.16751,-9.50179 -20.6655,-14.1691 -34.3332,-14.1691 -13.6677,0 -25.1657,4.66733 -34.3332,14.1691 -9.16751,9.49864 -13.6677,20.1641 -13.6677,31.8324 0,11.8323 4.50019,22.5009 13.6677,32.3339 9.16751,9.83292 20.6655,14.6674 34.3332,14.6674 13.6677,0 25.1657,-4.83447 34.3332,-14.6674 9.16751,-9.83292 13.6677,-20.5015 13.6677,-32.3339z"
     id="path738" /></glyph>
   <glyph
   unicode="÷"
   horiz-adv-x="833"
   id="glyph744"><path
     d="M483.999 482.999c0,-18.8333 -6.33243,-34.6644 -18.9973,-47.1652 -12.8351,-12.5009 -28.8334,-18.8333 -48.0009,-18.8333 -19.1676,0 -35.1658,6.33243 -48.0009,18.8333 -12.6649,12.5009 -19.0004,28.3319 -19.0004,47.1652 0,18.6662 6.49957,34.5004 19.5019,48.0009 13.1663,13.3334 29.0005,20.0001 47.4995,20.0001 18.6662,0 34.3332,-6.66671 47.4995,-20.0001 12.9991,-13.5006 19.4987,-29.3348 19.4987,-48.0009zm225 -225l-584.999 0 0 81.0002 584.999 0 0 -81.0002zm-225 -146.166c0,-18.8333 -6.33243,-34.5004 -18.9973,-46.9981 -12.8351,-12.5009 -28.8334,-18.8333 -48.0009,-18.8333 -19.1676,0 -35.1658,6.33243 -48.0009,18.8333 -12.6649,12.4977 -19.0004,28.1648 -19.0004,46.9981 0,18.1679 6.66671,33.835 19.833,47.1684 13.1694,13.3334 28.8334,20.0001 47.1684,20.0001 18.3319,0 33.999,-6.66671 47.1652,-20.1673 13.1663,-13.5006 19.833,-29.1676 19.833,-47.0012z"
     id="path742" /></glyph>
   <glyph
   unicode="æ"
   horiz-adv-x="487"
   id="glyph748"><path
     d="M469 0l-48.8335 0c-35.1658,0 -67.8339,6.0013 -98.1652,18.0007l5.33274 -18.0007 -79.0008 0 -40.1674 149.001 -101 0 -40.0003 -149.001 -79.1648 0 168.998 588.001 88.3355 -296c15.9982,19.4987 37.9977,36.1655 65.9985,49.8332 -33.5007,23.4975 -50.3314,53.4977 -50.3314,90.3317 0,39.1677 16.8308,71.8327 50.3314,98.1684 31.5013,24.5003 67.8339,36.6669 108.834,36.6669l48.8335 0 0 -71.9998 -48.4992 0c-19.3347,0 -36.834,-5.66702 -52.334,-17.1682 -16.8339,-12.3337 -25.1657,-27.6665 -25.1657,-45.8344 0,-18.1647 8.33181,-33.3335 25.1657,-45.333 15.1657,-11.1669 32.501,-16.6668 52.1668,-16.6668l29.1676 0 0 -71.9998 -29.3348 0c-39.1677,0 -71.6655,-10.1672 -97.667,-30.3313 -27.6665,-21.167 -41.4982,-48.6695 -41.4982,-82.6684 0,-33.8318 13.1663,-61.0001 39.4988,-81.4985 26.3326,-20.3344 59.6661,-30.5016 99.6663,-30.5016l48.8335 0 0 -72.9995zm-279.835 221.001l-32.1667 141.833 -30.8327 -141.833 62.9995 0z"
     id="path746" /></glyph>
   <glyph
   unicode="Õ"
   horiz-adv-x="782"
   id="glyph752"><path
     d="M756.999 349.999c0,-97.667 -35.6672,-181.666 -107.166,-251.834 -71.5016,-70.1644 -157.667,-105.166 -258.501,-105.166 -101.335,0 -187.668,35.0018 -259.166,105.166 -71.5016,70.1676 -107.169,154.167 -107.169,251.834 0,97.667 35.6672,181.502 107.169,251.336 71.4984,69.8333 157.831,104.665 259.166,104.665 100.833,0 186.999,-34.8315 258.501,-104.665 71.4984,-69.8333 107.166,-153.669 107.166,-251.336zm-83.9993 -0.331128c0,77.3326 -27.4994,143 -82.5013,197.166 -54.9988,54.1662 -121.499,81.1673 -199.166,81.1673 -77.834,0 -144.334,-27.0011 -199.5,-81.1673 -55.1659,-54.1662 -82.8324,-119.834 -82.8324,-197.166 0,-77.4997 27.6665,-143.501 82.8324,-198.002 55.1659,-54.5005 121.666,-81.6656 199.5,-81.6656 77.3326,0 143.665,27.1651 198.834,81.6656 55.1659,54.5005 82.8324,120.502 82.8324,198.002zm-172 462.497c0,-16.3325 -7.16498,-30.4985 -21.5012,-42.8322 -14.166,-12.1666 -31.4981,-18.3319 -51.6654,-18.3319 -24.3332,0 -47.4995,12.1666 -69.6662,36.3326 -7.49926,7.83354 -12.832,11.6652 -16.0014,11.6652 -9.83292,0 -14.5002,-9.00037 -14.166,-26.998 0.167141,-2.83509 0.167141,-9.83292 0,-20.9998l-59.0007 0 0 33.8318c0,16.3325 7.16813,30.6656 21.5012,43.3336 14.166,12.5009 31.5013,18.8333 51.6654,18.8333 24.6675,0 47.5027,-12.1666 68.6665,-36.6669 7.16813,-8.16782 12.8351,-12.3337 17.0011,-12.3337 9.83292,0 14.5002,9.33465 14.166,28.0008 0.167141,3.16621 0.167141,10.1672 0,20.9998l59.0007 0 0 -34.8347z"
     id="path750" /></glyph>
   <glyph
   unicode="Ä"
   horiz-adv-x="388"
   id="glyph756"><path
     d="M395.833 0l-82.9996 0 -49.8332 186.999 -138.169 0 -49.8332 -186.999 -82.9996 0 201.666 726 202.168 -726zm-152.833 264l-49.3349 205.167 -49.8332 -205.167 99.1681 0zm63.9991 532.999c0,-11.8323 -4.50019,-22.5009 -13.6677,-32.3339 -9.16436,-9.83292 -20.6655,-14.6642 -34.3332,-14.6642 -13.6645,0 -25.1657,4.83131 -34.3332,14.6642 -9.16436,9.83292 -13.6645,20.5015 -13.6645,32.3339 0,11.6683 4.50019,22.3338 13.6645,31.8324 9.16751,9.50179 20.6687,14.1691 34.3332,14.1691 13.6677,0 25.1689,-4.66733 34.3332,-14.1691 9.16751,-9.49864 13.6677,-20.1641 13.6677,-31.8324zm-127.998 0c0,-11.8323 -4.50019,-22.5009 -13.6677,-32.3339 -9.16751,-9.83292 -20.6655,-14.6642 -34.3332,-14.6642 -13.6677,0 -25.1657,4.83131 -34.3332,14.6642 -9.16751,9.83292 -13.6677,20.5015 -13.6677,32.3339 0,11.6683 4.50019,22.3338 13.6677,31.8324 9.16751,9.50179 20.6655,14.1691 34.3332,14.1691 13.6677,0 25.1657,-4.66733 34.3332,-14.1691 9.16751,-9.49864 13.6677,-20.1641 13.6677,-31.8324z"
     id="path754" /></glyph>
   <glyph
   unicode="³"
   horiz-adv-x="306"
   id="glyph760"><path
     d="M282.001 470.167c0,-32.8321 -12.8351,-61.0001 -38.3352,-84.1664 -25.6671,-23.3335 -56.4999,-35.0018 -92.6654,-35.0018 -55.3331,0 -99.0009,30.9999 -131.001,92.8357l72.8324 0c16.3356,-21.167 35.6672,-31.8356 58.1681,-31.8356 17.8336,0 32.9993,5.49988 45.5001,16.6668 12.3337,10.9998 18.499,24.8346 18.499,41.5014 0,17.165 -7.00099,30.9999 -20.9998,41.4982 -15.3328,11.334 -36.3326,16.8339 -63.1666,16.1685l0 61.9998 25.8343 0c6.16529,0 11.9994,2.83193 17.3322,8.49895 5.33274,5.83416 8.00068,12.668 8.00068,20.8358 0,19.1644 -10.3343,28.8334 -31.167,28.8334 -16.0014,0 -27.4994,-10.0001 -34.6675,-29.8362l-66.3328 0c13.9988,59.8332 47.6667,89.8334 101,89.8334 27.0011,0 50.1675,-8.66609 69.3319,-26.1654 19.1676,-17.3322 28.8334,-38.332 28.8334,-62.6652 0,-19.8361 -6.66671,-38.0009 -20.0001,-54.3334 35.3361,-24.6675 53.0025,-56.1688 53.0025,-94.6679z"
     id="path758" /></glyph>
   <glyph
   unicode="¢"
   horiz-adv-x="504"
   id="glyph764"><path
     d="M400.999 59.0007c-25.3329,-1.83539 -36.6669,-2.83509 -34.5004,-2.83509 -25.1657,0 -51.6654,3.5005 -79.4991,10.6686l0 -66.8342 -81.9999 0 0 102c-43.8319,27.0011 -78.1651,62.6652 -103,106.998 -24.6675,44.1693 -37.0012,91.1674 -37.0012,141.001 0,49.502 12.5009,96.169 37.3355,140.168 24.8314,43.8319 59.1647,79.4991 102.665,106.834l0 103 81.9999 0 0 -68.1682c29.1676,8.16782 55.6673,12.1666 79.4991,12.1666 6.16844,0 17.6665,-0.665409 34.5004,-1.99938l0 -79.0008c-22.1666,1.99938 -33.8318,2.99907 -34.6644,2.99907 -60.0004,0 -111.168,-20.9998 -153.669,-62.9995 -42.4979,-41.9996 -63.6649,-92.9996 -63.6649,-152.833 0,-61.4983 21.8324,-112.665 65.5003,-153.334 43.4976,-40.6657 97.4998,-61.0001 161.997,-61.0001 8.16782,0 16.3356,0.334282 24.5003,1.16683l0 -77.998z"
     id="path762" /></glyph>
   <glyph
   unicode=""
   horiz-adv-x="500"
   id="glyph768"><path
     d="M61.9998 0l0 840.999 375.001 0 0 -840.999 -375.001 0zm62.9995 62.9995l249.002 0 0 715 -249.002 0 0 -715z"
     id="path766" /></glyph>
   <glyph
   unicode=""
   horiz-adv-x="500"
   id="glyph772"><path
     d="M61.9998 0l0 840.999 375.001 0 0 -840.999 -375.001 0zm62.9995 62.9995l249.002 0 0 715 -249.002 0 0 -715z"
     id="path770" /></glyph>
   <glyph
   unicode="o"
   horiz-adv-x="638"
   id="glyph776"><path
     d="M618.001 282.001c0,-79.3351 -29.3348,-147.169 -88.1683,-203.502 -58.6664,-56.3327 -129.332,-84.5007 -212.001,-84.5007 -82.331,0 -152.666,28.1679 -210.667,84.5007 -58.165,56.3327 -87.1655,124.167 -87.1655,203.502 0,79.1648 29.0005,147.333 87.1655,204.833 58.001,57.4996 128.336,86.1658 210.667,86.1658 82.6684,0 153.334,-28.6662 212.001,-86.1658 58.8335,-57.4996 88.1683,-125.668 88.1683,-204.833zm-80.0005 0.331128c0,60.1675 -21.6684,111.502 -65.002,154 -43.1665,42.5011 -94.999,63.668 -155.167,63.668 -60.3315,0 -111.666,-21.167 -154.167,-63.668 -42.4979,-42.4979 -63.6649,-93.8322 -63.6649,-154 0,-60.4986 21.167,-111.666 63.6649,-153.167 42.5011,-41.4982 93.8353,-62.1637 154.167,-62.1637 60.5018,0 112.334,20.8327 155.501,62.498 43.1665,41.6685 64.6677,92.5014 64.6677,152.833z"
     id="path774" /></glyph>
   <glyph
   unicode="^"
   horiz-adv-x="1000"
   id="glyph780"><path
     d="M795 439l-101.167 0 -193.833 193.833 -194.833 -193.833 -101.167 0 242.833 274 106.333 0 241.834 -274z"
     id="path778" /></glyph>
   <glyph
   unicode="M"
   horiz-adv-x="705"
   id="glyph784"><path
     d="M713.666 0l-81.9999 0 -122.167 473.166 -156.665 -491.167 -158.169 491.167 -119.666 -473.166 -82.9996 0 200.667 736 160.168 -539.168 159.165 539.168 201.666 -736z"
     id="path782" /></glyph>
   <glyph
   unicode="&lt;"
   horiz-adv-x="833"
   id="glyph788"><path
     d="M704 22.9992l-574.999 235.668 0 78.1651 574.999 237.166 0 -90.3317 -455.834 -185.835 455.834 -185.999 0 -88.8337z"
     id="path786" /></glyph>
   <glyph
   unicode="+"
   horiz-adv-x="833"
   id="glyph792"><path
     d="M707.999 257.999l-250.998 0 0 -257.999 -81.9999 0 0 257.999 -251.001 0 0 81.0002 251.001 0 0 256.999 81.9999 0 0 -256.999 250.998 0 0 -81.0002z"
     id="path790" /></glyph>
   <glyph
   unicode="ô"
   horiz-adv-x="638"
   id="glyph796"><path
     d="M618.001 282.001c0,-79.3351 -29.3348,-147.169 -88.1683,-203.502 -58.6664,-56.3327 -129.332,-84.5007 -212.001,-84.5007 -82.331,0 -152.666,28.1679 -210.667,84.5007 -58.165,56.3327 -87.1655,124.167 -87.1655,203.502 0,79.1648 29.0005,147.333 87.1655,204.833 58.001,57.4996 128.336,86.1658 210.667,86.1658 82.6684,0 153.334,-28.6662 212.001,-86.1658 58.8335,-57.4996 88.1683,-125.668 88.1683,-204.833zm-80.0005 0.331128c0,60.1675 -21.6684,111.502 -65.002,154 -43.1665,42.5011 -94.999,63.668 -155.167,63.668 -60.3315,0 -111.666,-21.167 -154.167,-63.668 -42.4979,-42.4979 -63.6649,-93.8322 -63.6649,-154 0,-60.4986 21.167,-111.666 63.6649,-153.167 42.5011,-41.4982 93.8353,-62.1637 154.167,-62.1637 60.5018,0 112.334,20.8327 155.501,62.498 43.1665,41.6685 64.6677,92.5014 64.6677,152.833zm-123 318.668l-72.167 0 -26.834 33.8318 -26.834 -33.8318 -74.1663 0 65.8345 90.0006 68.3322 0 65.8345 -90.0006z"
     id="path794" /></glyph>
   <glyph
   unicode="ã"
   horiz-adv-x="313"
   id="glyph800"><path
     d="M326.334 0l-79.0008 0 -40.1674 149.001 -101 0 -40.0003 -149.001 -79.1648 0 168.998 609.001 170.335 -609.001zm-138.169 221.001l-32.1667 127.166 -30.8327 -127.166 62.9995 0zm87.834 441.166c0,-16.3356 -7.16498,-30.5016 -21.5012,-42.8353 -14.166,-12.1666 -31.4981,-18.3319 -51.6654,-18.3319 -24.3332,0 -47.4995,12.1666 -69.6662,36.3326 -7.49926,7.83354 -12.8351,11.6683 -16.0014,11.6683 -9.83292,0 -14.5002,-9.00037 -14.166,-27.0011 0.167141,-2.83193 0.167141,-9.83292 0,-20.9998l-59.0007 0 0 33.8318c0,16.3356 7.16813,30.6688 21.5012,43.3336 14.166,12.5009 31.5013,18.8333 51.6654,18.8333 24.6675,0 47.4995,-12.1666 68.6665,-36.6669 7.16813,-8.16467 12.8351,-12.3306 17.0011,-12.3306 9.83292,0 14.5002,9.3315 14.166,27.9977 0.167141,3.16621 0.167141,10.1672 0,20.9998l59.0007 0 0 -34.8315z"
     id="path798" /></glyph>
   <glyph
   unicode="Ò"
   horiz-adv-x="782"
   id="glyph804"><path
     d="M756.999 349.999c0,-97.667 -35.6672,-181.666 -107.166,-251.834 -71.5016,-70.1644 -157.667,-105.166 -258.501,-105.166 -101.335,0 -187.668,35.0018 -259.166,105.166 -71.5016,70.1676 -107.169,154.167 -107.169,251.834 0,97.667 35.6672,181.502 107.169,251.336 71.4984,69.8333 157.831,104.665 259.166,104.665 100.833,0 186.999,-34.8315 258.501,-104.665 71.4984,-69.8333 107.166,-153.669 107.166,-251.336zm-83.9993 -0.331128c0,77.3326 -27.4994,143 -82.5013,197.166 -54.9988,54.1662 -121.499,81.1673 -199.166,81.1673 -77.834,0 -144.334,-27.0011 -199.5,-81.1673 -55.1659,-54.1662 -82.8324,-119.834 -82.8324,-197.166 0,-77.4997 27.6665,-143.501 82.8324,-198.002 55.1659,-54.5005 121.666,-81.6656 199.5,-81.6656 77.3326,0 143.665,27.1651 198.834,81.6656 55.1659,54.5005 82.8324,120.502 82.8324,198.002zm-245 401.333l-71.8327 0 -73.1667 89.9974 79.1648 0 65.8345 -89.9974z"
     id="path802" /></glyph>
   <glyph
   unicode="Á"
   horiz-adv-x="388"
   id="glyph808"><path
     d="M395.833 0l-82.9996 0 -49.8332 186.999 -138.169 0 -49.8332 -186.999 -82.9996 0 201.666 726 202.168 -726zm-152.833 264l-49.3349 205.167 -49.8332 -205.167 99.1681 0zm53.9991 576.998l-69.3319 -89.9974 -74.6678 0 65.8345 89.9974 78.1651 0z"
     id="path806" /></glyph>
   <glyph
   unicode="°"
   horiz-adv-x="329"
   id="glyph812"><path
     d="M308.999 568.001c0,-40.0003 -13.9988,-74.0024 -41.9996,-102 -28.0008,-28.0008 -62.334,-41.9996 -103,-41.9996 -39.3317,0 -72.9995,13.9988 -101,42.1668 -28.0008,28.1648 -41.9996,62.1637 -41.9996,101.833 0,40.6657 13.8348,74.9989 41.5014,103 27.6665,28.0008 61.8326,41.9996 102.498,41.9996 39.3348,0 73.1667,-14.166 101.502,-42.5011 28.3319,-28.3319 42.4979,-62.498 42.4979,-102.498zm-53.9991 0.83255c0,25.6671 -8.66609,47.0012 -26.0014,64.3334 -17.165,17.165 -38.4991,25.8343 -63.9991,25.8343 -25.1657,0 -46.4998,-8.66924 -64.3334,-26.1686 -17.8336,-17.3322 -26.6668,-38.6663 -26.6668,-63.9991 0,-24.8346 9.00037,-46.1655 26.834,-63.9991 18.0007,-17.8336 39.3348,-26.834 64.1663,-26.834 25.1657,0 46.3327,8.83323 63.8352,26.6668 17.4993,17.6665 26.1654,39.0006 26.1654,64.1663z"
     id="path810" /></glyph>
   <glyph
   unicode=""
   horiz-adv-x="500"
   id="glyph816"><path
     d="M61.9998 0l0 840.999 375.001 0 0 -840.999 -375.001 0zm62.9995 62.9995l249.002 0 0 715 -249.002 0 0 -715z"
     id="path814" /></glyph>
   <glyph
   unicode=""
   horiz-adv-x="500"
   id="glyph820"><path
     d="M61.9998 0l0 840.999 375.001 0 0 -840.999 -375.001 0zm62.9995 62.9995l249.002 0 0 715 -249.002 0 0 -715z"
     id="path818" /></glyph>
   <glyph
   unicode="}"
   horiz-adv-x="500"
   id="glyph824"><path
     d="M421.999 216.999c-7.16498,0 -10.8326,0 -10.8326,0 -9.66578,0 -13.1663,0 -10.1672,0 -42.665,0 -72.6652,-10.8326 -90.0006,-32.665 -15.3328,-19.3347 -22.9992,-51 -22.9992,-95.3333l0 -121c0,-37.8337 -1.99938,-64.8348 -5.83416,-81.1673 -6.8307,-29.4988 -21.6652,-51.1671 -44.4973,-64.8317 -15.0017,-8.83323 -32.501,-15.0017 -52.6683,-18.6693 -19.0004,-3.49734 -48.3321,-5.33274 -87.998,-5.33274l-22.0027 0 0 85.0021c-2.99907,0 0.668563,0 10.8358,0 0,0 3.66448,0 11.1669,0 35.8312,0 59.9972,6.8307 72.331,20.4984 12.5009,13.6677 18.6662,42.1668 18.6662,85.5004l0 117.166c0,45.1658 5.83416,78.4994 17.5025,99.6663 14.6642,25.6671 42.1668,43.3336 82.331,53.1665 -37.6666,9.50179 -63.6649,24.6675 -78.1651,45.6673 -14.5002,20.9998 -21.6684,56.8342 -21.6684,107.667l0 117.667c0,39.666 -5.1656,66.6671 -15.6639,80.4988 -12.3337,16.3356 -37.1683,24.5003 -74.3335,24.5003 3.33335,0 -0.501422,0 -11.334,0 0,0 -3.83478,0 -11.6683,0l0 86.0018 22.0027 0c39.666,0 68.9976,-1.83539 87.998,-5.33589 48.1681,-8.49895 78.6665,-30.4985 91.8328,-65.8314 7.50241,-19.833 11.1669,-53.1665 11.1669,-100.001l0 -120.499c0,-46.4998 8.5021,-79.3351 25.5,-98.4995 16.8339,-19.1676 46.0016,-28.8334 87.4998,-28.8334 6.83385,0 10.1672,0 10.1672,0 6.66671,0.665409 10.1672,0.999691 10.8326,0.999691l0 -86.0018z"
     id="path822" /></glyph>
   <glyph
   unicode="l"
   horiz-adv-x="213"
   id="glyph828"><path
     d="M213.666 0l-178.667 0 0 567.001 78.0011 0 0 -495.002 100.666 0 0 -71.9998z"
     id="path826" /></glyph>
   <glyph
   unicode="["
   horiz-adv-x="247"
   id="glyph832"><path
     d="M228.166 -62.9995l-178.166 0 0 826 178.166 0 0 -77.0014 -96.1659 0 0 -672 96.1659 0 0 -76.9983z"
     id="path830" /></glyph>
   <glyph
   unicode="J"
   horiz-adv-x="244"
   id="glyph836"><path
     d="M205 183.833c0,-52.6651 -19.833,-97.3327 -59.499,-134.167 -40.8328,-37.8337 -90.502,-56.667 -149.5,-56.667l0 77.0014c36.4998,0.334282 66.8311,11.334 90.8331,32.9993 24.166,21.5012 36.1655,48.6663 36.1655,81.1673l0 515.834 81.9999 0 0 -516.169z"
     id="path834" /></glyph>
   <glyph
   unicode="9"
   horiz-adv-x="504"
   id="glyph840"><path
     d="M488.001 477.001c0,-96.6673 -20.3344,-185.501 -61.0001,-266.501 -42.1668,-83.665 -103.668,-153.833 -184.167,-210.5l-164.832 0c143.331,65.5003 240.667,157.998 291.998,277.832 -37.3323,-20.4984 -76.5,-30.8327 -117.166,-30.8327 -65.166,0 -120.666,22.6681 -166.668,68.1682 -46.1655,45.333 -69.1647,99.3321 -69.1647,161.833 0,62.498 22.9992,116.333 68.9976,161.332 46.0016,45.1658 101.502,67.6668 166.501,67.6668 66.6671,0 122.502,-22.1666 167.667,-66.6671 45.1658,-44.3333 67.8339,-98.4995 67.8339,-162.332zm-81.9999 0c0,41.9996 -15.0017,77.6668 -45.0019,106.998 -30.0002,29.3348 -65.9985,44.0022 -107.998,44.0022 -41.6685,0 -77.4997,-14.5002 -107.333,-43.6679 -29.833,-29.1676 -44.6676,-64.9988 -44.6676,-107.333 0,-42.3339 14.8345,-78.3354 44.6676,-107.834 29.833,-29.4988 65.6642,-44.1662 107.333,-44.1662 41.9996,0 77.998,14.6674 107.998,44.1662 30.0002,29.4988 45.0019,65.5003 45.0019,107.834z"
     id="path838" /></glyph>
   <glyph
   unicode="("
   horiz-adv-x="231"
   id="glyph844"><path
     d="M242.332 -62.9995l-84.999 0c-87.4998,111.666 -131.332,249.333 -131.332,412.999 0,163.669 43.8319,301.333 131.332,413.002l84.999 0c-43.999,-55.3331 -77.8308,-121.666 -101.666,-199.169 -21.8324,-71.0001 -32.665,-142.164 -32.665,-213.833 0,-71.6655 10.8326,-142.833 32.665,-213.833 23.8349,-77.4997 57.6667,-143.833 101.666,-199.166z"
     id="path842" /></glyph>
   <glyph
   unicode="ñ"
   horiz-adv-x="351"
   id="glyph848"><path
     d="M317 0l-73.6649 0 -130.335 346.167 0 -346.167 -78.0011 0 0 567.001 73.8352 0 130.165 -345.833 0 345.833 78.0011 0 0 -567.001zm-20.9998 662.168c0,-16.3356 -7.16813,-30.5016 -21.5012,-42.8353 -14.166,-12.1666 -31.4981,-18.3319 -51.6654,-18.3319 -24.3332,0 -47.4995,12.1666 -69.6662,36.3326 -7.49926,7.83354 -12.8351,11.6683 -16.0014,11.6683 -9.83292,0 -14.5002,-9.00037 -14.166,-27.0011 0.167141,-2.83193 0.167141,-9.83292 0,-20.9998l-59.0007 0 0 33.8318c0,16.3356 7.16813,30.6688 21.5012,43.3336 14.166,12.5009 31.4981,18.8333 51.6654,18.8333 24.6675,0 47.4995,-12.1666 68.6665,-36.6669 7.16813,-8.16467 12.8351,-12.3306 17.0011,-12.3306 9.83292,0 14.5002,9.3315 14.166,27.9977 0.167141,3.16621 0.167141,10.1672 0,20.9998l59.0007 0 0 -34.8315z"
     id="path846" /></glyph>
   <glyph
   unicode="à"
   horiz-adv-x="313"
   id="glyph852"><path
     d="M326.334 0l-79.0008 0 -40.1674 149.001 -101 0 -40.0003 -149.001 -79.1648 0 168.998 609.001 170.335 -609.001zm-138.169 221.001l-32.1667 127.166 -30.8327 -127.166 62.9995 0zm9.83292 379.999l-71.8327 0 -73.1667 90.0006 79.168 0 65.8314 -90.0006z"
     id="path850" /></glyph>
   <glyph
   unicode="Ï"
   horiz-adv-x="162"
   id="glyph856"><path
     d="M122 0l-81.9999 0 0 700.001 81.9999 0 0 -700.001zm70.0004 797c0,-11.8323 -4.50019,-22.5009 -13.6677,-32.3339 -9.16751,-9.83292 -20.6655,-14.6642 -34.3332,-14.6642 -13.6677,0 -25.1657,4.83131 -34.3332,14.6642 -9.16751,9.83292 -13.6677,20.5015 -13.6677,32.3339 0,11.6683 4.50019,22.3338 13.6677,31.8324 9.16751,9.50179 20.6655,14.1691 34.3332,14.1691 13.6677,0 25.1657,-4.66733 34.3332,-14.1691 9.16751,-9.49864 13.6677,-20.1641 13.6677,-31.8324zm-128.001 0c0,-11.8323 -4.50019,-22.5009 -13.6645,-32.3339 -9.16751,-9.83292 -20.6687,-14.6642 -34.3332,-14.6642 -13.6677,0 -25.1689,4.83131 -34.3332,14.6642 -9.16751,9.83292 -13.6677,20.5015 -13.6677,32.3339 0,11.6683 4.50019,22.3338 13.6677,31.8324 9.16436,9.50179 20.6655,14.1691 34.3332,14.1691 13.6645,0 25.1657,-4.66733 34.3332,-14.1691 9.16436,-9.49864 13.6645,-20.1641 13.6645,-31.8324z"
     id="path854" /></glyph>
   <glyph
   unicode="¾"
   horiz-adv-x="564"
   id="glyph860"><path
     d="M281.001 470.167c0,-32.8321 -12.8351,-61.0001 -38.3352,-84.1664 -25.6671,-23.3335 -56.4999,-35.0018 -92.6654,-35.0018 -55.3331,0 -99.0009,30.9999 -131.001,92.8357l72.8324 0c16.3325,-21.167 35.6672,-31.8356 58.1681,-31.8356 17.8336,0 32.9993,5.49988 45.5001,16.6668 12.3337,10.9998 18.499,24.8346 18.499,41.5014 0,17.3322 -7.00099,31.167 -20.9998,41.6654 -15.3328,11.334 -36.3326,16.6668 -63.1666,16.0014l0 62.1669 25.8343 0c6.16529,0 11.9994,2.83193 17.3322,8.49895 5.33274,5.66702 8.00068,12.668 8.00068,20.8327 0,19.1676 -10.3343,28.6694 -31.167,28.6694 -16.0014,0 -27.4994,-10.0001 -34.6675,-30.0002l-66.3328 0c13.9988,59.9972 47.6667,89.9974 101,89.9974 26.998,0 50.1675,-8.66609 69.3319,-26.1654 19.1676,-17.3322 28.8334,-38.332 28.8334,-62.6652 0,-19.8361 -6.66671,-38.0009 -20.0001,-54.3334 35.3329,-24.6675 53.0025,-56.1688 53.0025,-94.6679zm256 229.834l-345.168 -700.001 -72.6652 0 344.666 700.001 73.1667 0zm7.83354 -613l-41.8356 0 0 -87.0015 -65.9985 0 0 87.0015 -141.168 0 207.166 297.832 0 -237.835 41.8356 0 0 -59.9972zm-107.834 59.9972l0 37.0012 -25.0017 -37.0012 25.0017 0z"
     id="path858" /></glyph>
   <glyph
   unicode="­"
   horiz-adv-x="353"
   id="glyph864"><path
     d="M313.001 180.001l-273.001 0 0 83.9993 273.001 0 0 -83.9993z"
     id="path862" /></glyph>
   <glyph
   unicode=""
   horiz-adv-x="500"
   id="glyph868"><path
     d="M61.9998 0l0 840.999 375.001 0 0 -840.999 -375.001 0zm62.9995 62.9995l249.002 0 0 715 -249.002 0 0 -715z"
     id="path866" /></glyph>
   <glyph
   unicode=""
   horiz-adv-x="500"
   id="glyph872"><path
     d="M61.9998 0l0 840.999 375.001 0 0 -840.999 -375.001 0zm62.9995 62.9995l249.002 0 0 715 -249.002 0 0 -715z"
     id="path870" /></glyph>
   <glyph
   unicode="z"
   horiz-adv-x="292"
   id="glyph876"><path
     d="M291.002 567.001l-185.003 -495.002 181.168 0 0 -71.9998 -286.167 0 185 495.002 -155.167 0 0 71.9998 260.169 0z"
     id="path874" /></glyph>
   <glyph
   unicode="i"
   horiz-adv-x="148"
   id="glyph880"><path
     d="M113 0l-78.0011 0 0 567.001 78.0011 0 0 -567.001z"
     id="path878" /></glyph>
   <glyph
   unicode="X"
   horiz-adv-x="346"
   id="glyph884"><path
     d="M359.999 0l-82.9996 0 -104.999 280.834 -103.999 -280.834 -81.9999 0 144.999 391.999 -112.833 308.003 82.9996 0 70.833 -197.002 73.3338 197.002 81.9999 0 -113.334 -308.003 145.999 -391.999z"
     id="path882" /></glyph>
   <glyph
   unicode="G"
   horiz-adv-x="463"
   id="glyph888"><path
     d="M425.001 -7.00099l-32.6681 0c-101,0 -187.333,35.0018 -258.832,105.166 -71.6687,70.1676 -107.5,154.167 -107.5,251.834 0,97.667 35.6641,181.502 107.166,251.336 71.4984,69.8333 157.834,104.665 259.166,104.665 4.50019,0 15.3328,-0.665409 32.6681,-1.99938l0 -78.0011c-15.0017,1.33397 -25.8343,2.00254 -32.6681,2.00254 -77.834,0 -144.334,-27.0011 -199.5,-81.0002 -55.1659,-54.1694 -82.8324,-119.666 -82.8324,-196.835 0,-68.3322 21.9995,-128.5 66.1657,-180.165 44.1662,-51.8357 99.8335,-83.3339 166.835,-94.835l0 380.835 81.9999 0 0 -463.002z"
     id="path886" /></glyph>
   <glyph
   unicode="6"
   horiz-adv-x="504"
   id="glyph892"><path
     d="M491 223c0,-62.5012 -22.9992,-116.5 -69.1647,-161.833 -46.1687,-45.5001 -101.669,-68.1682 -166.501,-68.1682 -66.3328,0 -122.167,22.3338 -167.333,66.8342 -45.333,44.6676 -68.0011,99.0009 -68.0011,163.167 0,96.6673 20.4984,185.501 61.4983,266.498 42.3339,83.3339 104.17,153.501 185.501,210.503l165.167 0c-144.334,-66.0017 -242.001,-158.667 -293.001,-278.166 36.3358,20.1641 75.002,30.1642 116.336,30.1642 64.8317,0 120.332,-22.4978 166.333,-67.6668 46.1655,-44.9987 69.1647,-98.8338 69.1647,-161.332zm-81.9999 -0.334282c0,42.1668 -14.9985,77.6668 -45.1658,106.834 -30.0002,29.0005 -66.1657,43.5007 -108.001,43.5007 -41.6654,0 -77.4997,-14.5002 -107.166,-43.5007 -29.833,-29.1676 -44.6676,-64.6677 -44.6676,-106.834 0,-42.3339 14.8345,-78.4994 44.6676,-108.165 29.6659,-29.6691 65.5003,-44.5004 107.166,-44.5004 41.8356,0 78.0011,14.8314 108.001,44.5004 30.1673,29.6659 45.1658,65.8314 45.1658,108.165z"
     id="path890" /></glyph>
   <glyph
   unicode="%"
   horiz-adv-x="674"
   id="glyph896"><path
     d="M330.999 523.999c0,-42.3308 -11.6652,-81.1642 -35.1658,-116.664 -29.0005,-43.5007 -68.6665,-65.3331 -119.001,-65.3331 -50.1643,0 -89.332,21.9995 -117.664,65.8314 -22.8352,34.8347 -34.1692,73.5009 -34.1692,116.166 0,42.6682 11.334,81.5016 34.1692,116.667 28.3319,43.5007 67.4996,65.3331 117.664,65.3331 50.3346,0 90.0006,-21.8324 119.001,-65.3331 23.5006,-35.5001 35.1658,-74.3335 35.1658,-116.667zm219.834 176.002l-345.666 -700.001 -82.9996 0 345.666 700.001 82.9996 0zm99.1681 -524.169c0,-42.4979 -11.6683,-81.1642 -35.1689,-116.333 -28.9973,-43.6647 -68.6665,-65.5003 -118.831,-65.5003 -50.1675,0 -89.6694,21.8355 -118.336,65.5003 -22.4978,35.1689 -33.6647,73.8352 -33.6647,116.333 0,42.6682 11.1669,81.5016 33.6647,116.667 28.6662,43.6679 68.1682,65.5003 118.336,65.5003 50.1643,0 89.8334,-21.8324 118.831,-65.5003 23.5006,-35.1658 35.1689,-73.9992 35.1689,-116.667zm-398 348.003c0,27.4994 -7.16813,52.8322 -21.5012,75.4972 -14.9985,24.5003 -32.8321,36.6669 -53.668,36.6669 -20.4984,0 -37.9977,-11.9994 -52.3308,-36.1655 -13.6677,-22.3338 -20.5015,-47.8338 -20.5015,-75.9986 0,-28.0008 6.83385,-53.3337 20.5015,-75.6675 14.3331,-24.166 31.8324,-36.1686 52.3308,-36.1686 20.8358,0 38.6694,12.0026 53.668,36.1686 14.3331,22.6649 21.5012,47.9978 21.5012,75.6675zm318.999 -348.003c0,27.8337 -7.00099,53.3337 -20.9998,76.0017 -15.3328,24.166 -33.1664,36.1655 -53.668,36.1655 -20.8327,0 -38.4991,-11.9994 -52.8322,-36.1655 -13.6677,-22.3338 -20.5015,-47.8338 -20.5015,-76.0017 0,-27.9977 6.83385,-53.3305 20.5015,-75.6643 14.3331,-24.1692 31.9996,-36.1686 52.8322,-36.1686 20.5015,0 38.3352,11.9994 53.668,36.1686 13.9988,22.6649 20.9998,47.9978 20.9998,75.6643z"
     id="path894" /></glyph>
  </font>
</defs>
</svg>
